Silent Scream
Akira Yamaoka, Mary Elizabeth McGlynn

EXTREME

Level: 8
BPM: 110
Notes: 623

1
②口①① |①---|
口口③① |----|
①③口口 |--②-|
①①口② |--③-|
2
口①口口 |----|
①口口口 |----|
口口口② |----|
口口②口 |①-②-|
3
①②②① |--①-|
口口口口 |----|
口口口口 |--②-|
③口口③ |--③-|
4
口口口口 |----|
口口口口 |----|
口口口口 |----|
口口口口 |----|
5
①①口② |①---|
①③口口 |----|
口口③① |--②-|
②口①① |--③-|
6
口口①口 |----|
口口口① |----|
②口口口 |----|
口②口口 |①-②-|
7
①②②① |--①-|
口口口口 |----|
口口口口 |--②-|
③口口③ |--③-|
8
口①①口 |----|
口口口口 |----|
口口口口 |----|
口口口口 |①---|
9
口口口④ |①-②-|
口口口③ |③-④-|
口口口②
①①①①

口口⑧口
口口⑦口
⑤口⑥口 |⑤-⑥-|
⑧⑤口口 |⑦-⑧-|
10
⑥③口口 |--①-|
⑤②口口 |②-③-|
④①口口 |--④-|
口口⑤口 |⑤-⑥-|
11
口口口④ |①-②-|
口口口③ |③-④-|
口口口②
①口口①

口口⑧口
口口⑦口
⑤口⑥口 |⑤-⑥-|
⑧⑤口口 |⑦-⑧-|
12
⑥③口口 |--①-|
⑤②口口 |②-③-|
④①口口 |--④-|
口口⑤④ |⑤-⑥-|
13
口口①① |①-②-|
口口口口 |③-④-|
口口③④
①①口②

口⑧⑦⑧
口⑤⑤⑥
口口口口 |⑤-⑥-|
口口口口 |⑦-⑧-|
14
⑦④口口 |①-②-|
⑥③口口 |③-④-|
⑤②口口 |--⑤-|
口①⑥⑤ |⑥-⑦-|
15
口口口④ |①-②-|
口口口③ |③-④-|
口口口②
①①口口

口口⑧口
口口⑦口
⑤口⑥口 |⑤-⑥-|
口⑤口口 |⑦-⑧-|
16
口①口口 |①---|
①口口口 |②---|
口口口②
口口②口

⑥口③口
⑤口口④
④口口⑤ |③-④-|
口③口⑥ |⑤-⑥-|
17
④④①① |①-②-|
口②口③ |③-④-|
③口②口
①①④④

口口⑦⑦
⑥口⑤口
口⑤口⑥ |--⑤-|
⑦⑦口口 |⑥-⑦-|
18
口③口口 |--①-|
口①口② |②-③-|
②口①口
口口③口

口口口④
⑤口⑥口
口⑥口⑤ |④-⑤-|
④⑦⑦口 |⑥-⑦-|
19
④④口③ |①-②-|
口②口① |③-④-|
①口②口
③口④④

口口⑦⑦
⑥口⑤口
口⑤口⑥ |--⑤-|
⑦⑦口口 |⑥-⑦-|
20
③口口④ |--①-|
②口④① |②-③-|
①④口② |④---|
④口口③ |----|
21
口口口① |①---|
口口口① |----|
①口口口
①口口口

口口口口
口口④④
口口③③ |②-③-|
口②口口 |--④-|
22
⑤⑤口口 |①---|
④④口口 |----|
口口③③ |②-③-|
口口①② |④-⑤-|
23
口口口① |①---|
口口口① |----|
①口口口
①口口口

口口口口
口口④④
口口③③ |②-③-|
口②口口 |--④-|
24
口口口口 |①---|
口口口口 |----|
口口口口 |②---|
口口①② |----|
25
口口口① |①---|
口口口① |----|
①口口口
①口口口

口口口口
口口④④
口口③③ |②-③-|
口②口口 |--④-|
26
⑤⑤口口 |①---|
④④口口 |----|
口口③③ |②-③-|
口口①② |④-⑤-|
27
口口口① |①---|
口口口① |----|
①口口口
①口口口

口口口口
口口③③
④④口口 |②-③-|
口②口口 |--④-|
28
口口②④ |①--②|
口③口④ |③-④-|
口口口口
口口①口

⑦⑤口口
⑦⑧⑥口
口口⑨口 |-⑤⑥-|
口口口口 |⑦-⑧⑨|
29
口口口④ |①-②-|
口口口③ |③-④-|
口口口②
①①①①

口⑧⑧口
口口⑦口
⑤口⑥口 |⑤-⑥-|
口⑤口口 |⑦-⑧-|
30
⑧④⑦口 |①-②-|
⑦③⑧口 |③-④-|
⑥②口口 |⑤-⑥-|
口口①⑤ |⑦-⑧-|
31
口口口④ |①-②-|
口口口③ |③-④-|
口口口②
①①①①

口⑧⑧口
口⑦⑦口
口口⑥口 |⑤-⑥-|
口⑤口口 |⑦-⑧-|
32
⑩④⑪口 |①-②-|
⑧③⑨口 |③-④-|
⑥②⑦口 |⑤-⑥⑦|
口口①⑤ |⑧⑨⑩⑪|
33
口口口④ |①-②-|
口口口③ |③-④-|
口口口②
①①口口

口⑧⑧口
口口⑦口
⑤口⑥口 |⑤-⑥-|
口⑤口口 |⑦-⑧-|
34
⑧④⑥口 |①-②-|
⑦③⑦口 |③-④-|
⑥②⑧口 |⑤-⑥-|
口口①⑤ |⑦-⑧-|
35
口口口④ |①-②-|
口口口③ |③-④-|
口口口②
①①①①

口⑧⑧口
口⑦⑦口
口⑤⑥口 |⑤-⑥-|
口⑤口口 |⑦-⑧-|
36
③口口④ |①-②-|
②口口④ |③-④-|
①口③①
①④②①

⑧⑦口⑧
⑥⑦⑤口
口⑤口⑥ |⑤-⑥-|
口口⑦口 |⑦-⑧-|
37
口④①口 |①-②-|
④口③① |③-④-|
①②口④
③①④②

⑤口⑧⑤
口⑦口⑧
⑧⑥⑦口 |⑤-⑥-|
口⑧口⑥ |⑦-⑧-|
38
①③口口 |①-②-|
口口②④ |③-④-|
④口口③
②口①口

口⑧⑤⑦
⑥口口口
口⑤口⑧ |⑤-⑥-|
⑦口⑥口 |⑦-⑧-|
39
②④口口 |①-②-|
④口③① |③-④-|
口①口④
③口④②

口口⑧⑤
口⑥⑦⑧
⑧⑤口口 |⑤-⑥-|
⑦⑧口⑥ |⑦-⑧-|
40
②口④① |①-②-|
口③口口 |③-④-|
口①③口
口④口②

⑨口口⑤
口⑦⑤⑥
口⑤⑧⑥ |⑤-⑥-|
⑤口口⑩ |⑦⑧⑨⑩|
41
口①③口 |①-②-|
①口口③ |③-④-|
④口口②
④口口口

口⑤⑦口
⑤口口⑦
口⑧⑥口 |⑤-⑥-|
口⑦⑧口 |⑦-⑧-|
42
口①③口 |①-②-|
①口口③ |③-④-|
④口口②
④口口口

口⑤⑦口
⑤口口⑦
口⑧⑥口 |⑤-⑥-|
口⑦口口 |⑦-⑧-|
43
口①③口 |①-②-|
①口口③ |③-④-|
④口口②
④口口口

口⑤⑦口
⑤口口⑦
口⑧⑥口 |⑤-⑥-|
口⑦⑧口 |⑦-⑧-|
44
口①③口 |①-②-|
①口口③ |③-④-|
④口口②
④口口①

口⑤⑦口
⑤口口⑦
口⑧⑥口 |⑤-⑥-|
口⑦口口 |⑦-⑧-|
45
口①③口 |①-②-|
①口口③ |③-④-|
④口口②
④口①口

口⑤⑦口
⑤口口⑦
口⑧⑥口 |⑤-⑥-|
口⑦⑧口 |⑦-⑧-|
46
口①③口 |①-②-|
①口口③ |③-④-|
④口口②
④口口口

口⑤⑦口
⑤口口⑦
口⑧⑥口 |⑤-⑥-|
口⑦口口 |⑦-⑧-|
47
口①③口 |①-②-|
①④④③ |③-④-|
口④④②
口③①口

口口口口
口口口⑤
⑤口口口 |----|
口⑥⑥口 |⑤-⑥-|
48
①②③④ |①-②-|
①②③④ |③-④-|
④③②①
口口口口

口⑥⑥口
口口口口
口⑥⑥口 |⑤---|
⑤⑤⑤⑤ |⑥---|
49
④口口① |①-②-|
口④②① |③-④-|
①③口口
①口②③

⑧⑤⑤⑦
口⑧⑦⑥
⑥口⑧口 |⑤-⑥-|
口口口⑧ |⑦-⑧-|
50
口②③③ |①-②-|
口④口口 |③-④-|
②口口①
口口①④

⑧⑧⑦口
口口口⑥
口⑦口⑥ |⑤-⑥-|
⑤口⑤口 |⑦-⑧-|
51
口口口④ |①-②-|
③①④口 |③-④-|
③④①口
④②口②

⑧⑤⑤口
⑦⑧口⑦
口口⑧⑥ |⑤-⑥-|
口口⑥⑧ |⑦-⑧-|
52
口口②口 |①-②-|
口口③口 |③-④-|
①④④口
①②③口

口口口口
⑤口口⑤
⑤口口⑤ |⑤---|
口口口口 |----|

不確定度: 1

最終更新:2013年08月01日 11:47