Sol Cosine Job 2
DJ TECHNORCH

BASIC

Level: 6
BPM: 190-200
Notes: 512

1
口口口口 |----|
口口口口 |----|
口口口口 |----|
口口口口 |----|
2
口口口口 |----|
口口口口 |----|
口口口口 |----|
口口口口 |----|
3
口口口口 |①---|
口③④口 |②---|
口①②口 |③---|
口口口口 |④---|
4
③口口④ |①---|
口口口口 |②---|
口口口口 |③---|
①口口② |④---|
5
口口口口 |①---|
口③④口 |②---|
口①②口 |③---|
口口口口 |④---|
6
③口口④ |①---|
口口口口 |②---|
口口口口 |③---|
①口口② |④---|
7
口口口口 |①---|
口③④口 |②---|
口①②口 |③---|
口口口口 |④---|
8
③口口④ |①---|
口口口口 |②---|
口口口口 |③---|
①口口② |④---|
9
口口口口 |①---|
口③④口 |②---|
口①②口 |③---|
口口口口 |④---|
10
③口口④ |①---|
口口口口 |②---|
口口口口 |③---|
①口口② |④---|
11
口口口口 |①---|
口口口口 |----|
口①①口 |----|
口口口口 |----|
12
口口口口 |①---|
④③②① |②---|
④③②① |③---|
口口口口 |④---|
13
③口口① |①---|
口口口口 |②---|
口口口口 |③---|
④口口② |④---|
14
口口①口 |①---|
口③④口 |②---|
口③④口 |③---|
口口②口 |④---|
15
①口口③ |①---|
口口口口 |②---|
口口口口 |③---|
②口口④ |④---|
16
口①口口 |①---|
口④③口 |②---|
口④③口 |③---|
口②口口 |④---|
17
③口口① |①---|
口口口口 |②---|
口口口口 |③---|
④口口② |④---|
18
口④④口 |①---|
口③③口 |②---|
口②②口 |③---|
口①①口 |④---|
19
③口口① |①---|
口口口口 |②---|
口口口口 |③---|
④口口② |④---|
20
口口①口 |①---|
口③④口 |②---|
口③④口 |③---|
口口②口 |④---|
21
①口口③ |①---|
口口口口 |②---|
口口口口 |③---|
②口口④ |④---|
22
口①①口 |①---|
③②②③ |②---|
④口口④ |③---|
口口口口 |④---|
23
③③①① |①---|
口口口口 |②---|
口口口口 |③---|
④④②② |④---|
24
口口①① |①---|
口③④口 |②---|
口③④口 |③---|
口口②② |④---|
25
①①③③ |①---|
口口口口 |②---|
口口口口 |③---|
②②④④ |④---|
26
口口口口 |①---|
①②③④ |②---|
①②③④ |③---|
口口口口 |④---|
27
③口口① |①---|
口口口口 |②---|
口口口口 |③---|
④口口② |④---|
28
口口①口 |①---|
口③④口 |②---|
口③④口 |③---|
口口②口 |④---|
29
①口口③ |①---|
口口口口 |②---|
口口口口 |③---|
②口口④ |④---|
30
口口口口 |①---|
①②③④ |②---|
①②③④ |③---|
口口口口 |④---|
31
③③①① |①---|
口口口口 |②---|
口口口口 |③---|
④④②② |④---|
32
口口①① |①---|
口③④口 |②---|
口③④口 |③---|
口口②② |④---|
33
①①③③ |①---|
口口口口 |②---|
口口口口 |③---|
②②④④ |④---|
34
口④④口 |①---|
②口口② |②---|
③①①③ |③---|
口口口口 |④---|
35
①口口① |①---|
口①①口 |----|
口口口口 |----|
口口口口 |----|
36
④口②口 |①---|
口口口口 |②---|
口口口口 |③---|
口③口① |④---|
37
口口口口 |①---|
④③②① |②---|
④③②① |③---|
口口口口 |④---|
38
口②口④ |①---|
口口口口 |②---|
口口口口 |③---|
①口③口 |④---|
39
口口口口 |①---|
①②③④ |②---|
①②③④ |③---|
口口口口 |④---|
40
口口①口 |①---|
口②口口 |②---|
口口③口 |③---|
口④口口 |④---|
41
①口口① |①---|
②口口② |②---|
③口口③ |③---|
④口口④ |④---|
42
口④口口 |①---|
口口③口 |②---|
口②口口 |③---|
口口①口 |④---|
43
④口口④ |①---|
③口口③ |②---|
②口口② |③---|
①口口① |④---|
44
④②②④ |①---|
口口口口 |②---|
口口口口 |③---|
③①①③ |④---|
45
口口口口 |①---|
④③②① |②---|
④③②① |③---|
口口口口 |④---|
46
②④④② |①---|
口口口口 |②---|
口口口口 |③---|
①③③① |④---|
47
口口口口 |①---|
①②③④ |②---|
①②③④ |③---|
口口口口 |④---|
48
④③②① |①---|
口口口口 |②---|
口口口口 |③---|
④③②① |④---|
49
口口口口 |①---|
③①①③ |②---|
④②②④ |③---|
口口口口 |④---|
50
①②③④ |①---|
口口口口 |②---|
口口口口 |③---|
①②③④ |④---|
51
口④④口 |①---|
②口口② |②---|
③①①③ |③---|
口口口口 |④---|
52
①口口① |①---|
口①①口 |----|
口口口口 |----|
口口口口 |----|
53
口口口口 |----|
口口口口 |----|
口口口口 |----|
口口口口 |----|
54
口口口口 |----|
口口口口 |----|
口口口口 |----|
口口口口 |----|
55
口口口口 |----|
口口口口 |----|
口①口口 |----|
口口口口 |--①-|
56
口口口口 |①---|
口口口口 |----|
口口①口 |----|
口口口口 |----|
57
口口口口 |----|
口口口口 |----|
口①口口 |----|
口口口口 |--①-|
58
口口口口 |①---|
口口口口 |----|
口口①口 |----|
口口口口 |----|
59
④口口④ |①---|
③口口③ |②---|
②口口② |③---|
①口口① |④---|

BPM: 195
60
口①①口 |①---|
口口口口 |----|
口口口口 |②---|
口②②口 |----|
61
口口口口 |①---|
③①①③ |②---|
④②②④ |③---|
口口口口 |④---|
62
①口口① |①---|
口口口口 |----|
口口口口 |②---|
②口口② |----|
63
口口口口 |①---|
①③③① |②---|
②④④② |③---|
口口口口 |④---|

BPM: 200
64
口①①口 |①---|
口口口口 |----|
口口口口 |②---|
口②②口 |----|
65
口口口口 |①---|
③①①③ |②---|
④②②④ |③---|
口口口口 |④---|
66
①口口① |①---|
口口口口 |----|
口口口口 |②---|
②口口② |----|
67
口口口口 |①---|
口①①口 |----|
口①①口 |----|
口口口口 |----|
68
②口③① |①--②|
④⑥口⑤ |--③-|
口口口口 |④--⑤|
口口口口 |--⑥-|
69
口口口口 |①--②|
口口口口 |--③-|
②口③① |④---|
④口口口 |----|
70
口口口口 |①---|
口口口口 |----|
口口口口 |----|
口①①口 |----|
71
口口口口 |----|
口口口口 |----|
口口口口 |----|
口口口口 |----|
72
口口口口 |①---|
口①①口 |----|
口①①口 |----|
口口口口 |----|
73
口口口口 |----|
口口口口 |----|
口口口口 |----|
口口口口 |----|
74
口口口口 |①---|
①口口① |----|
①口口① |----|
口口口口 |----|
75
口口口口 |----|
口口口口 |----|
口口口口 |----|
口口口口 |----|
76
口口口口 |①---|
②口口② |----|
口口口口 |②---|
①口口① |----|
77
口④④口 |①---|
口③③口 |②---|
口②②口 |③---|
口①①口 |④---|
78
③口口① |①---|
口口口口 |②---|
口口口口 |③---|
④口口② |④---|
79
口口①口 |①---|
口③④口 |②---|
口③④口 |③---|
口口②口 |④---|
80
①口口③ |①---|
口口口口 |②---|
口口口口 |③---|
②口口④ |④---|
81
口口口口 |①---|
①②③④ |②---|
①②③④ |③---|
口口口口 |④---|
82
③③①① |①---|
口口口口 |②---|
口口口口 |③---|
④④②② |④---|
83
口口①① |①---|
口③④口 |②---|
口③④口 |③---|
口口②② |④---|
84
①①③③ |①---|
口口口口 |②---|
口口口口 |③---|
②②④④ |④---|
85
口口口口 |①---|
①③③① |②---|
②④④② |③---|
口口口口 |④---|
86
③口口① |①---|
口口口口 |②---|
口口口口 |③---|
④口口② |④---|
87
口口①口 |①---|
口③④口 |②---|
口③④口 |③---|
口口②口 |④---|
88
①口口③ |①---|
口口口口 |②---|
口口口口 |③---|
②口口④ |④---|
89
口口口口 |①---|
③①①③ |②---|
④②②④ |③---|
口口口口 |④---|
90
③③①① |①---|
口口口口 |②---|
口口口口 |③---|
④④②② |④---|
91
口口①① |①---|
口③④口 |②---|
口③④口 |③---|
口口②② |④---|
92
①①③③ |①---|
口口口口 |②---|
口口口口 |③---|
②②④④ |④---|
93
③③③③ |①---|
口①①口 |②---|
口②②口 |③---|
④④④④ |④---|
94
口口口口 |①---|
①②③① |----|
①口口① |②---|
口口口口 |③---|
95
口①②口 |----|
口口口口 |①---|
口口口口 |②---|
口③口口 |③---|
96
口口口口 |①---|
口口口口 |----|
口口口口 |----|
口口①口 |----|

不確定度: 0

最終更新:2014年05月19日 21:29