リメンバーリメンバー
rino & m@sumi from plastic penguin

EXTREME

Level: 8
BPM: 182
Notes: 555

1
口口口口 |----|
口口口口 |----|
口口口口 |----|
口口口口
2
口口口口 |①---|
①口口口 |②---|
口②口口 |③---|
口口③口
3
口口口口 |①---|
口口口① |②---|
口口②口 |③---|
口③口口
4
口口口口 |①---|
①口口口 |②---|
口②口口 |③---|
口口③口
5
口口口口 |①---|
口口口① |②---|
口口②口 |③---|
口③口口
6
①口口口 |①---|
口②口口 |②---|
口口③口 |③---|
口口口口
7
口口口① |①---|
口口②口 |②---|
口③口口 |③---|
口口口口
8
①口口口 |①---|
口②口口 |②---|
口口③口 |③---|
口口口口
9
口口口① |①---|
②口口口 |----|
口口口口 |②---|
口口口口
10
口口口口 |①---|
口口③口 |②---|
口②口口 |③---|
①口口口
11
口口口口 |①---|
口③口口 |②---|
④口口② |③-④-|
口口①口
12
口口④口 |①-②-|
口口口① |--③-|
口口②口 |--④-|
口③口口
13
口②口② |①---|
口①口口 |----|
②口口口 |②---|
口口口口
14
口口口口 |①---|
③②口① |②---|
口口②口 |③---|
①③①③
15
①口①口 |①---|
口口②口 |②---|
口②口① |③---|
③口口口
16
口③口口 |①-②-|
口口口② |--③-|
口④①口 |--④-|
口口口口
17
口②口口 |①---|
口口口口 |----|
口口口口 |②---|
口口①口
18
口口③口 |①---|
②②口口 |②---|
口①口口 |③---|
口口口口
19
口口口口 |①---|
③口②② |②---|
口口①口 |③---|
口口口口
20
口口①口 |①-②-|
口口口口 |--③-|
口口②口 |--④-|
③口④口
21
口口②口 |①---|
口③口口 |----|
①①口口 |②-③-|
口口口口
22
口口口口 |①---|
口口口② |----|
口口①口 |②---|
口口口②
23
口②口口 |①---|
口口口口 |②---|
口②口③ |③---|
口①口口
24
口口口口 |①---|
①口口口 |----|
口口口口 |----|
①口口口
25
口口①口 |①---|
口口①口 |----|
口口口口 |----|
口口口口
26
口口口口 |①---|
口口口口 |----|
口①口① |②---|
②口①口
27
口①①③ |①---|
①口口口 |②---|
口口②② |③---|
口②口口
28
口②②口 |①---|
③③口② |②---|
①①口口 |③---|
口口①口
29
口口口口 |①-②-|
④④③口 |--③-|
口口口① |--④-|
②②口口
30
口②①② |①---|
口口口口 |----|
②口口口 |②---|
口口口口
31
口口口口 |①---|
③②口① |②---|
口口②口 |③---|
①③①③
32
①口①口 |①---|
口口②口 |②---|
③②口① |③---|
口口口口
33
②②口口 |①-②-|
口口口口 |--③-|
④④③口 |--④-|
口口口①
34
口口口口 |①---|
口口口① |----|
口口口口 |②---|
②口口口
35
口①①③ |①---|
①口口口 |②---|
口口②② |③---|
口②口口
36
口②②口 |①---|
③口口② |②---|
①①口口 |③---|
口口①口
37
口口口口 |①-②-|
口口口口 |--③-|
④②③③ |--④-|
口口口①
38
①②口口 |①-②-|
③④①① |③-④-|
口口⑤口 |⑤-⑥-|
口⑥口口
39
口口口口 |①---|
③口口口 |②---|
口口口① |③---|
②口口口
40
口口口口 |①---|
口口①口 |②---|
③②口③ |③---|
口口口口
41
①口口① |①---|
口口口口 |②-③-|
⑤④口口 |④-⑤-|
②③口口
42
口口②口 |①---|
口口口口 |②---|
口口口① |----|
口口口口
43
①口口① |①---|
口口③口 |②---|
口②口口 |③---|
口口口口
44
②③口口 |①---|
④⑤口口 |②-③-|
口口口口 |④-⑤-|
①口口①
45
口口口③ |①---|
口口②口 |②---|
口①口③ |③---|
口口②口
46
口口口口 |①---|
口①口② |②---|
口口口口 |③---|
③①口②
47
口口③③ |①-②-|
口口口⑤ |③-④-|
①①口② |⑤---|
口口④口
48
①口口口 |①---|
口②口口 |②---|
口口③口 |③---|
口口口口
49
口④口口 |①-②-|
③口④口 |③---|
口口口口 |--④-|
口②口①
50
②口②口 |①---|
口口口口 |----|
口①口口 |--②-|
口口①口
51
口口口口 |①---|
口口③口 |②---|
口②①① |③---|
口口口口
52
口口口口 |①---|
④口口口 |②---|
口口口② |③-④-|
①①③口
53
口①③口 |①---|
口口口② |②---|
口①③口 |③---|
口口口口
54
①口口口 |①---|
口口①口 |②---|
②口口③ |③---|
口③②口
55
②③口① |①---|
口①口⑦ |②③④⑤|
⑥⑤④口 |⑥-⑦-|
口口口口
56
口口⑨⑧ |①②③④|
⑦⑥⑤口 |⑤⑥⑦-|
口口口口 |⑧-⑨-|
①②③④
57
①②口口 |①②③④|
口⑦口⑧ |⑤-⑥-|
口⑤④③ |⑦-⑧-|
口口口⑥
58
口口口口 |①-②-|
②口①口 |③-④-|
口口口口 |⑤-⑥-|
③⑥④⑤
59
①口口① |①---|
口口③口 |②---|
口②口口 |③---|
口口口口
60
口口口口 |①---|
口②口③ |②-③-|
④口⑤口 |④-⑤-|
①口口①
61
口②口口 |①---|
②口口口 |②---|
口③口口 |③---|
口①口口
62
口口口口 |①---|
③口①口 |②---|
口口口① |③---|
口口②口
63
口①口口 |①---|
口口口口 |----|
口口②口 |②---|
口口口口
64
口口口口 |----|
口①口口 |①---|
②口口口 |②---|
口口口口
65
①②口① |①---|
③口②口 |②---|
口口口口 |③---|
口③口口
66
口口口口 |①---|
口口口① |----|
②②口口 |②---|
口口①口
67
④⑤①① |①---|
②③口口 |②-③-|
口口口口 |④-⑤-|
口口口口
68
口口口③ |①---|
口口①口 |②---|
②口口③ |③---|
口口口口
69
口口①口 |①---|
口口口口 |②-③-|
④⑤①口 |④-⑤-|
②③口口
70
口口③② |①---|
口口①口 |②---|
口口③② |③-④-|
口④①口
71
④⑤口口 |①---|
②③口① |②-③-|
口口口口 |④-⑤-|
口口口①
72
口口①② |①---|
③口口口 |②---|
口口①② |③---|
口口口口
73
口口口口 |①---|
口④口④ |②-③-|
口口③口 |④---|
①口①②
74
⑤②口⑤ |①-②-|
①口④口 |③-④-|
口③口口 |⑤---|
口口口口
75
口口口口 |①---|
④⑤口口 |②-③-|
②③口口 |④-⑤-|
①口口①
76
口①口口 |①---|
口口口口 |----|
口口口口 |----|
口口口口
77
口口③口 |①---|
②②口口 |②-③-|
④④①口 |--④-|
口口口口
78
口口口口 |①---|
②口口口 |----|
口口口口 |②---|
口口①①
79
口口①① |①---|
口口口口 |----|
口②口口 |②---|
口口口口
80
口口口口 |①---|
口口口口 |----|
口口口口 |----|
口口①①
81
③③口口 |①---|
口④①① |②-③-|
②口口口 |--④-|
口口口口
82
口②口② |①---|
口口口口 |----|
②口①① |②---|
口口口口
83
口口口口 |①---|
③②口① |②---|
口口②口 |③---|
①③①③
84
①口①口 |①---|
口口②口 |②---|
口②口① |③-④-|
③口④口
85
口口口口 |①-②-|
③①口② |--③-|
口口④口 |--④-|
口口口口
86
口②口口 |①---|
口口③口 |----|
口口口口 |②-③-|
口①口口
87
口口口口 |①---|
口口口② |----|
②①口口 |②---|
口口口口
88
口口口① |①-②-|
口①口口 |③-④-|
口⑤④② |⑤-⑥-|
口③⑥口
89
①口③② |①---|
口④①口 |②-③-|
口口⑤口 |④-⑤-|
口口口口
90
口④⑤口 |①-②-|
⑤口口口 |③-④-|
③①口口 |⑤---|
口口②口
91
③④口口 |①---|
口②口④ |②-③-|
口口②① |④---|
口①口口
92
口口口口 |①---|
口口②口 |②---|
①②④③ |③-④-|
口口①口
93
①①口口 |①-②-|
③口口② |③-④-|
④④口口 |--⑤-|
口口口⑤
94
②④③④ |①-②-|
口口口口 |③---|
④口①口 |④---|
口口口口
95
口口口口 |①---|
③②口① |②---|
口口②口 |③---|
①③①③
96
①③①口 |①---|
口口②口 |②---|
④②口① |③-④-|
口口口口
97
口口口口 |①-②-|
口②口③ |③-④-|
口口⑤口 |--⑤-|
④④①①
98
口口④口 |①-②-|
④口③口 |③---|
①②口口 |④---|
口口口口
99
口④口口 |①---|
口②口④ |②-③-|
口口②① |④---|
口①口③
100
口口口口 |①---|
③④②口 |②---|
①②口口 |③-④-|
口口①口
101
口口①① |①-②-|
口口⑤口 |③-④-|
②口口③ |--⑤-|
④④口口
102
②口③④ |①-②-|
口⑤口① |③-④-|
口口口⑥ |⑤-⑥-|
口口口口
103
⑧口口⑦ |①②③④|
口口①口 |⑤-⑥-|
④⑤⑥口 |⑦-⑧-|
②③口口
104
口①④口 |①-②-|
③口②⑤ |③-④⑤|
口口⑦口 |⑥-⑦-|
口⑥口口
105
口口口口 |①-②-|
口①⑤口 |③---|
③④口口 |④-⑤-|
口口②口
106
⑥⑥口⑦ |①-②③|
④④口⑤ |④-⑤-|
口口③② |⑥-⑦-|
①①口口
107
口口口口 |①---|
口口①口 |②---|
②①口口 |③---|
口③口口
108
口②口口 |①---|
①口③口 |②-③-|
口④口① |--④-|
口口口口
109
⑥口口① |①-②-|
④口⑤口 |③-④-|
②口③口 |⑤-⑥-|
①口口口
110
口口①口 |①-②-|
口②⑥③ |③-④-|
口④口⑤ |⑤-⑥-|
口口口口
111
口口口口 |-----①--|
口口口口 |----|
口口口口 |----|
口①①口

不確定度: 0

最終更新:2014年03月16日 15:28