Rainbow after snow
猫叉Master feat.林ももこ

BASIC

Level: 2
BPM: 179
Notes: 171

1
口口口口 |----|
口口口口 |----|
口口口口 |----|
口口口口 |----|
2
口口口口 |----|
口口口口 |----|
口口口口 |----|
口口口口 |----|
3
口口口① |①---|
口口口口 |----|
口口口口 |----|
口口口口 |----|
4
口口口口 |----|
口口口口 |----|
口口口口 |----|
口口口口 |----|
5
口口口口 |----|
①②③口 |①---|
口口口口 |②---|
口口口口 |③---|
6
口口口口 |----|
口口口口 |----|
口口口口 |----|
口口口口 |----|
7
口口口口 |----|
口口口口 |①---|
口③②① |②---|
口口口口 |③---|
8
口口口口 |----|
口口口口 |----|
口口口口 |----|
口口口口 |----|
9
口口口口 |----|
口口口口 |----|
口口口口 |①---|
口②①口 |②---|
10
口口口口 |----|
口口口口 |----|
口口口口 |----|
口口口口 |----|
11
口口口口 |①---|
口①①口 |----|
口口口口 |----|
口口口口 |----|
12
口口②① |----|
口口口口 |----|
口口口口 |①---|
口口口口 |②---|
13
口口口口 |----|
口口口口 |----|
口口口口 |----|
口口口口 |----|
14
口口口口 |①---|
①口②③ |----|
口口口口 |②---|
口口口口 |③---|
15
口口口口 |----|
口口口口 |----|
口口口口 |----|
口口口口 |----|
16
②③口口 |①---|
口口口口 |----|
口口口① |②---|
口口口口 |③---|
17
口口口口 |----|
口口口口 |----|
口口口口 |----|
口口口口 |----|
18
口口口口 |----|
口口口口 |----|
口口口口 |----|
口口口口 |----|
19
口口口口 |①---|
口口口口 |----|
口口口口 |----|
口①①口 |----|
20
口②③口 |①---|
口口口口 |----|
口①①口 |②---|
口口口口 |③---|
21
口口口口 |----|
口①②口 |----|
口口口口 |①---|
口口口口 |②---|
22
口口口口 |----|
口口口口 |----|
口①②口 |①---|
口口口口 |②---|
23
口口口口 |----|
口口口口 |----|
口口口口 |①---|
口①②口 |②---|
24
口口口口 |----|
③口口口 |①---|
②口口口 |②---|
①口口口 |③---|
25
①口②口 |①---|
口口口口 |----|
口口口口 |②---|
口口口口 |----|
26
口口口口 |①---|
口①口口 |----|
口口②口 |②---|
口口口口 |----|
27
口口口口 |①---|
口口口口 |----|
口口口口 |----|
口①口口 |----|
28
口②①口 |----|
口口口口 |----|
口口口口 |①---|
口口口口 |②---|
29
口口口口 |----|
口②①口 |----|
口口口口 |①---|
口口口口 |②---|
30
口口口口 |----|
口口口口 |----|
口②①口 |①---|
口口口口 |②---|
31
口口口口 |----|
口口口口 |----|
口口口口 |①---|
口②①口 |②---|
32
口口口口 |----|
口口口③ |①---|
口口口② |②---|
口口口① |③---|
33
口②口① |①---|
口口口口 |----|
口口口口 |②---|
口口口口 |----|
34
口口口口 |①---|
口口①口 |----|
口②口口 |②---|
口口口口 |----|
35
口口口口 |①---|
口口口口 |----|
口口口口 |----|
口口①口 |----|
36
口口口口 |----|
口口口口 |----|
口口口口 |----|
口口口口 |----|
37
口口口口 |----|
口口口口 |----|
口口口口 |①---|
①口口口 |----|
38
口口口口 |①---|
口口②口 |----|
口①口口 |②---|
口口口口 |----|
39
口口②① |①---|
口口口口 |----|
口口口口 |②---|
口口口口 |----|
40
②①口口 |①---|
口口口口 |----|
口口口口 |②---|
口口口口 |----|
41
口口口口 |①---|
口口口口 |----|
口①①口 |----|
口口口口 |----|
42
口口口口 |①---|
口①①口 |----|
口口口口 |----|
口口口口 |----|
43
①口口① |①---|
口口口口 |----|
口口口口 |----|
口口口口 |----|
44
口口口口 |----|
口口口口 |----|
口口口口 |----|
口口口口 |----|
45
口口口口 |----|
口口口口 |----|
口口口口 |①---|
①口口口 |----|
46
口口口口 |①---|
②口口口 |----|
口口口① |②---|
口口口口 |----|
47
②口口① |①---|
口口口口 |----|
口口口口 |②---|
口口口口 |----|
48
口口口口 |①---|
口口①口 |----|
口②口口 |②---|
口口口口 |----|
49
口口口口 |①---|
②②口口 |----|
口口口口 |②---|
口口①口 |----|
50
口口口口 |----|
口口③口 |①---|
口②口口 |②---|
口口①口 |③---|
51
口口口口 |----|
口口口口 |----|
口口口口 |----|
口口口口 |----|
52
口口口口 |----|
口口口口 |----|
口口口口 |----|
口口口口 |----|
53
口口口口 |----|
口口口口 |----|
口口口口 |----|
口口口口 |----|
54
口口口① |----|
口口②口 |----|
口口口口 |①---|
口口口口 |②---|
55
口口口口 |①---|
口口口口 |②---|
④①口口 |③---|
②口口③ |④---|
56
④口口口 |①---|
②口口③ |②---|
口口口① |③---|
口口口口 |④---|
57
口②③① |①---|
口④口口 |②---|
口口口口 |③---|
口口口口 |④---|
58
③口口口 |①---|
口④①口 |②---|
口②口口 |③---|
口口口口 |④---|
59
口口口口 |①---|
口口口口 |②---|
口口①④ |③---|
③口口② |④---|
60
口口口④ |①---|
③口口② |②---|
①口口口 |③---|
口口口口 |④---|
61
口口口口 |----|
口口口口 |----|
口口口口 |----|
口口口口 |----|
62
①口口口 |----|
口②口口 |----|
口口口口 |①---|
口口口口 |②---|
63
口口口口 |①---|
口口口口 |②---|
口口①④ |③---|
③口口② |④---|
64
口口口④ |①---|
③口口② |②---|
①口口口 |③---|
口口口口 |④---|
65
①③②口 |①---|
口口④口 |②---|
口口口口 |③---|
口口口口 |④---|
66
口口口③ |①---|
口①④口 |②---|
口口②口 |③---|
口口口口 |④---|
67
口口口口 |①---|
口口口口 |②---|
④①口口 |③---|
②口口③ |④---|
68
④口口口 |①---|
②口口③ |②---|
口口口① |③---|
口口口口 |④---|
69
口口口口 |----|
口口口口 |----|
口口口口 |----|
口口口口 |----|
70
口口③口 |----|
口②口口 |①---|
口口①口 |②---|
口口口口 |③---|
71
口口口口 |----|
①口口口 |----|
口口口口 |①---|
口口口口 |----|
72
口口②① |----|
口口口口 |----|
口口口口 |①---|
口口口口 |②---|
73
口口口口 |----|
口口口口 |----|
口口口口 |----|
口口口口 |----|
74
口口口口 |①---|
①口②③ |----|
口口口口 |②---|
口口口口 |③---|
75
口口口口 |----|
口口口口 |----|
口口口口 |----|
口口口口 |----|
76
②③口口 |①---|
口口口口 |----|
口口口① |②---|
口口口口 |③---|
77
口口口口 |----|
口口口口 |----|
口口口口 |----|
口口口口 |----|
78
口口口口 |----|
口口口口 |----|
口口口口 |----|
口口口口 |----|
79
口口口口 |①---|
口口口② |----|
口口口口 |②---|
口①①口 |----|
80
①②口口 |----|
口口口口 |----|
口口口口 |①---|
口口口口 |②---|
81
口口口口 |----|
口口口口 |----|
口口②① |①---|
口口口口 |②---|
82
口口口口 |----|
口口口口 |----|
口口口口 |①---|
①②口口 |②---|
83
口口口口 |----|
口口②① |----|
口口口口 |①---|
口口口口 |②---|
84
①②口口 |----|
口口口口 |----|
口口口口 |①---|
口口口口 |②---|
85
口口口口 |----|
口口口口 |----|
口口口口 |----|
口口口口 |----|
86
口口口口 |----|
口口口口 |----|
口口口口 |----|
口口口口 |----|
87
口口口口 |①---|
口①①口 |----|
口①①口 |----|
口口口口 |----|
88
口口口口 |----|
口口口口 |----|
口口口口 |----|
口口口口 |----|
89
口③②① |----|
口口口口 |①---|
口口口口 |②---|
口口口口 |③---|
90
口口口口 |----|
口口口口 |----|
口口口口 |----|
口口口口 |----|
91
口口口口 |----|
①②③口 |①---|
口口口口 |②---|
口口口口 |③---|
92
口口口口 |----|
口口口口 |----|
口口口口 |----|
口口口口 |----|
93
口口口口 |----|
口口口口 |①---|
口③②① |②---|
口口口口 |③---|

不確定度: 0

最終更新:2014年05月19日 21:31