Rainbow after snow
猫叉Master feat.林ももこ

ADVANCED

Level: 5
BPM: 179
Notes: 321

1
口口口口 |----|
口口口口 |----|
口口口口 |----|
口口口口 |----|
2
口口口口 |----|
口口口口 |----|
口口口口 |----|
口口口口 |----|
3
口口①口 |①---|
口口口口 |----|
口口口口 |----|
口口口口 |----|
4
口口口口 |----|
口口口口 |----|
口口口口 |----|
口口口口 |----|
5
口口③口 |----|
口②口口 |①---|
①口口口 |②---|
口口口口 |③---|
6
口口口口 |----|
口口口口 |----|
口口口口 |----|
口口口口 |----|
7
②口口口 |----|
口③口口 |①---|
口口口① |②---|
口口口口 |③---|
8
口口口口 |----|
口口口口 |----|
口口口口 |----|
口口口口 |----|
9
口口口① |----|
口口②口 |----|
口口口口 |①---|
口口口口 |②---|
10
口口口口 |----|
口口口口 |----|
口口口口 |----|
口口口口 |----|
11
①口口① |①---|
口①①口 |----|
口口口口 |----|
口口口口 |----|
12
口①口口 |----|
口口②口 |----|
口口口口 |①---|
口口口口 |②---|
13
口口口口 |----|
口③口口 |①---|
口口②口 |②---|
口口口① |③---|
14
口口口③ |①---|
口口②口 |----|
口口口口 |②---|
①口口口 |③---|
15
②口口口 |----|
口③口口 |①---|
口口口口 |②---|
口口口① |③---|
16
口口口口 |①---|
口口口② |----|
口口③口 |②---|
①口口口 |③---|
17
口口口口 |----|
口口口口 |----|
口口口口 |----|
口口口口 |----|
18
口口口口 |----|
口口口口 |----|
口口口口 |----|
口口口口 |----|
19
①口口① |①---|
口口口口 |----|
口口口口 |----|
口口口口 |----|
20
口口①口 |----|
口①口口 |----|
口口②口 |①---|
口②口口 |②---|
21
口①口口 |----|
口口①口 |----|
口②口口 |①---|
口口②口 |②---|
22
口口口① |----|
①口口口 |----|
口口口② |①---|
②口口口 |②---|
23
①口口口 |----|
口口口① |----|
②口口口 |①---|
口口口② |②---|
24
口口口⑤ |----|
④口口口 |①---|
口①口③ |②-③-|
②口口口 |④-⑤-|
25
③口口口 |----|
口①②口 |--①-|
口口口口 |②---|
口口口口 |③---|
26
口口口口 |①---|
口口③① |②---|
②④口口 |③-④-|
口口⑤口 |⑤---|
27
口口口口 |----|
口口口口 |----|
口口口口 |----|
口口口口 |----|
28
口口①口 |----|
口①口口 |----|
口口②口 |①---|
口②口口 |②---|
29
口①口口 |----|
口口①口 |----|
口②口口 |①---|
口口②口 |②---|
30
口口口① |----|
①口口口 |----|
口口口② |①---|
②口口口 |②---|
31
①口口口 |----|
口口口① |----|
②口口口 |①---|
口口口② |②---|
32
口口口⑤ |----|
④口口口 |①---|
口①口③ |②-③-|
②口口口 |④-⑤-|
33
②口口口 |----|
口①①口 |----|
口口口口 |①---|
口口口口 |②---|
34
口⑥⑤① |①---|
口④口口 |②-③-|
口口③口 |④-⑤-|
口②口口 |⑥---|
35
口口口口 |----|
口口口口 |----|
口口口口 |----|
口口口口 |----|
36
口口口口 |----|
口口口口 |----|
口口口口 |----|
口口口口 |----|
37
口口口口 |①---|
口口口口 |----|
口口口口 |②---|
①②②① |----|
38
口口口口 |①---|
口②②口 |----|
口①①口 |②---|
口口口口 |----|
39
②①①口 |①---|
口口口③ |----|
口口口口 |②---|
口口口口 |③---|
40
口口④口 |①---|
③⑤口口 |②---|
口口口② |③---|
①口口口 |④-⑤-|
41
②口口口 |①---|
口口口口 |②---|
口口①③ |----|
口口③口 |③---|
42
口口口② |①---|
口口②① |②---|
③口①口 |----|
口③口口 |③---|
43
②口口口 |①---|
①②口口 |②---|
口①口口 |----|
口口口口 |----|
44
口口口口 |----|
口口口口 |----|
口口口口 |----|
口口口口 |----|
45
②①①口 |①---|
口口②口 |----|
口口口口 |②---|
口口口口 |----|
46
口口口口 |①---|
口口口① |----|
②①口口 |②---|
口口②口 |----|
47
②②口口 |①---|
①口口① |----|
口口③③ |②---|
口口口口 |③---|
48
口口②② |①---|
③③口口 |②---|
①①口口 |③---|
口口④④ |④---|
49
口②口口 |①---|
口口③口 |----|
口④口口 |②-③-|
①①口口 |④---|
50
口口口口 |----|
⑤口口口 |①-②-|
③口口④ |③-④-|
①口口② |⑤---|
51
口口④口 |①---|
口口③口 |②---|
口口②口 |③---|
口口①口 |④---|
52
口④口口 |①---|
口③口口 |②---|
口②口口 |③---|
口①口口 |④---|
53
口口④口 |①---|
口口③口 |②---|
口口②口 |③---|
口口①口 |④---|
54
③口口③ |①---|
口④口口 |②---|
①口⑤① |③---|
②口口② |④-⑤-|
55
口口口口 |①---|
③口口② |②---|
②口口③ |③---|
④①口④ |④---|
56
①④④① |①---|
口③②口 |②---|
口②③口 |③---|
口口口口 |④---|
57
①口口② |①---|
①口口② |②---|
口③④口 |③---|
口③④口 |④---|
58
④①⑤④ |①-②-|
口⑥②口 |③---|
③口口口 |④---|
口口口口 |⑤-⑥-|
59
口口口口 |①---|
③口④② |②---|
口④①口 |③---|
②口口③ |④---|
60
②口口② |①---|
⑤①口口 |②---|
口口①④ |③-④-|
③口口口 |⑤---|
61
口口口口 |----|
口口口口 |----|
口口口口 |----|
口口口口 |----|
62
①口口① |----|
口口②口 |----|
口③口口 |①---|
口口口口 |②-③-|
63
口口口口 |①---|
②口口③ |②---|
③口口② |③---|
④口①④ |④---|
64
①④④① |①---|
口②③口 |②---|
口③②口 |③---|
口口口口 |④---|
65
②口口① |①---|
②口口① |②---|
口④③口 |③---|
口④③口 |④---|
66
④⑤①④ |①-②-|
口②⑥口 |③---|
口口口③ |④---|
口口口口 |⑤-⑥-|
67
口口口口 |①---|
②④口③ |②---|
口①④口 |③---|
③口口② |④---|
68
②口口② |①---|
口口①⑤ |②---|
④①口口 |③-④-|
口口口③ |⑤---|
69
口口口口 |----|
口口口口 |----|
口口口口 |----|
口口口口 |----|
70
口口口口 |----|
①口④① |①---|
①③口① |②-③-|
口口②口 |④---|
71
①口口① |①---|
口口口口 |----|
口口口口 |②---|
②口口口 |----|
72
口①口口 |----|
口口②口 |----|
口口口口 |①---|
口口口口 |②---|
73
口口口口 |----|
口③口口 |①---|
口口②口 |②---|
口口口① |③---|
74
口口口③ |①---|
口口②口 |----|
口口口口 |②---|
①口口口 |③---|
75
②口口口 |----|
口③口口 |①---|
口口口口 |②---|
口口口① |③---|
76
口口口口 |①---|
口口口② |----|
口口③口 |②---|
①口口口 |③---|
77
口口口口 |----|
口口口口 |----|
口口口口 |----|
口口口口 |----|
78
口口口口 |----|
口口口口 |----|
口口口口 |----|
口口口口 |----|
79
①口口① |①---|
口口口口 |----|
口口口口 |②---|
②口口口 |----|
80
口口口口 |----|
口口口① |----|
口口②口 |①---|
口口口口 |②---|
81
口口口口 |----|
口口③口 |①---|
口②口口 |②---|
①口口口 |③---|
82
口③口口 |①---|
②口口口 |----|
口口口口 |②---|
口口口① |③---|
83
口口口口 |----|
口口口口 |----|
口①口口 |①---|
口口②口 |②---|
84
口口口② |①---|
口口③口 |----|
口口口口 |②---|
①口口口 |③---|
85
口口口口 |----|
口口口口 |----|
口口口口 |----|
口口口口 |----|
86
口口口口 |----|
口口口口 |----|
口口口口 |----|
口口口口 |----|
87
口口口口 |①---|
口①①口 |----|
口①①口 |----|
口口口口 |----|
88
口口口口 |----|
口口口口 |----|
口口口口 |----|
口口口口 |----|
89
口口口口 |----|
口口口② |①---|
口口③口 |②---|
①口口口 |③---|
90
口口口口 |----|
口口口口 |----|
口口口口 |----|
口口口口 |----|
91
口口口口 |----|
口③口口 |①---|
口口②口 |②---|
口口口① |③---|
92
口口口口 |----|
口口口口 |----|
口口口口 |----|
口口口口 |----|
93
口①②口 |①---|
口③④口 |②---|
口口口口 |③---|
口口口口 |④---|
94
口口口口 |①---|
口口口口 |②---|
口①②口 |③---|
口③④口 |④---|

不確定度: 0

最終更新:2014年05月19日 21:31