Proof of the existence
猫叉Master+

BASIC

Level: 4
BPM: 170
Notes: 279

1
口口口口 |----|
口口口口 |----|
口口口口 |----|
口口口口 |----|
2
口口口口 |----|
口口口口 |----|
口口口口 |----|
口口口口 |----|
3
口口口口 |----|
口口口口 |----|
口口口口 |----|
口口口口 |----|
4
口口口口 |----|
口口口口 |----|
口口口口 |----|
口口口口 |----|
5
口口口口 |----|
口口口口 |----|
口口口口 |----|
口口口口 |----|
6
口口口口 |----|
口口口口 |----|
口口口口 |----|
口口口口 |----|
7
口口口口 |----|
口口口口 |----|
口口口口 |----|
口口口口 |----|
8
口口口口 |----|
口口口口 |----|
口口口口 |----|
口口口口 |----|
9
口口口口 |----|
口口口口 |----|
口口口口 |----|
口口口口 |----|
10
口口口口 |①---|
口口口口 |----|
口口口口 |----|
①口口① |----|
11
口口口口 |----|
口口口口 |----|
口口口口 |----|
口口口口 |----|
12
口口口口 |①---|
口口口口 |----|
①口口① |----|
口口口口 |----|
13
口口口口 |----|
口口口口 |----|
口口口口 |----|
口口口口 |----|
14
口口口口 |①---|
①口口① |----|
口口口口 |----|
口口口口 |----|
15
口口口口 |①---|
口口口口 |----|
口①①口 |----|
口口口口 |----|
16
口口口口 |①---|
口口口口 |----|
口口口口 |----|
口①①口 |----|
17
口口口口 |----|
口口口口 |----|
口口口口 |----|
口口口口 |----|
18
口口口① |①---|
口口③口 |②---|
口④口口 |③---|
②口口口 |④---|
19
④口口口 |①---|
口②口口 |②---|
口口①口 |③---|
口口口③ |④---|
20
口口口口 |①---|
②口口③ |②---|
④口口① |③---|
口口口口 |④---|
21
口口③① |①---|
口口口口 |②---|
口口口口 |③---|
②④口口 |④---|
22
口口口口 |①---|
口④①口 |②---|
口②③口 |③---|
口口口口 |④---|
23
④②口口 |①---|
口口口口 |②---|
口口口口 |③---|
口口①③ |④---|
24
口口口口 |①---|
口②③口 |②---|
口④①口 |③---|
口口口口 |④---|
25
口口口口 |①---|
口口口① |②---|
②口口③ |③---|
口口口口 |----|
26
口④③② |①---|
口①①口 |----|
口口口口 |--②-|
口口口口 |③-④-|
27
口口口口 |----|
①②③口 |----|
口口口口 |--①-|
口口口口 |②-③-|
28
口口口口 |----|
口口口口 |----|
口③②① |--①-|
口口口口 |②-③-|
29
①口口口 |----|
口④③② |--①-|
口口口口 |--②-|
口口口口 |③-④-|
30
口口口口 |①---|
①口口口 |----|
②③④口 |--②-|
口口口口 |③-④-|
31
⑤口口口 |----|
口口口④ |--①-|
③口口口 |②-③-|
①口口② |④-⑤-|
32
口口口① |①---|
②③④口 |----|
口口口口 |--②-|
口口口口 |③-④-|
33
口口口口 |--①-|
口口口口 |②-③-|
口③②① |--④-|
④⑤⑥口 |⑤-⑥-|
34
口④③② |①---|
口口口口 |----|
口口口口 |--②-|
口口口① |③-④-|
35
口口口口 |----|
①②③口 |----|
口口口口 |--①-|
口口口口 |②-③-|
36
口口口口 |----|
口口口口 |----|
口③②① |--①-|
口口口口 |②-③-|
37
①口口口 |----|
口④③② |--①-|
口口口口 |--②-|
口口口口 |③-④-|
38
口口口口 |①---|
①口口口 |----|
②③④口 |--②-|
口口口口 |③-④-|
39
⑤口口口 |----|
口口口④ |--①-|
③口口口 |②-③-|
①口口② |④-⑤-|
40
口口口① |①---|
②③④口 |----|
口口口口 |--②-|
口口口口 |③-④-|
41
口口口口 |--①-|
口口口口 |②-③-|
口③②① |--④-|
④⑤⑥口 |⑤-⑥-|
42
口④⑤口 |①---②-|
⑥口口口 |--③---|
②口口③ |④---⑤-|
口口口① |--⑥---|
43
口口口口 |①---|
口④口① |----|
口口③口 |②---③-|
口②口口 |--④---|
44
口口①口 |①---②-|
②口口口 |--③---|
口⑥口③ |④---⑤-|
④口口⑤ |--⑥---|
45
口口口口 |①---|
口口①口 |----|
口口口口 |----|
口口口口 |----|
46
②口①③ |①---②-|
④口口口 |--③---|
口口口⑤ |④---⑤-|
⑥口口口 |--⑥---|
47
口口口口 |①---|
口④口口 |----|
口口③口 |②---③-|
口②口① |--④---|
48
口口①口 |①---②-|
②口口③ |--③---|
④口口⑤ |④---⑤-|
⑥口口口 |--⑥---|
49
口口口口 |①---|
口④④口 |----|
口③③口 |②---③-|
口②②① |--④---|
50
口④⑤口 |①---②-|
⑥口口口 |--③---|
②口口③ |④---⑤-|
口口口① |--⑥---|
51
口口口口 |①---|
口④口① |----|
口口③口 |②---③-|
口②口口 |--④---|
52
口口①口 |①---②-|
②口口口 |--③---|
口⑥口③ |④---⑤-|
④口口⑤ |--⑥---|
53
口口口口 |①---|
口口①口 |----|
口口口口 |----|
口口口口 |----|
54
②口①③ |①---②-|
④口口口 |--③---|
口口口⑤ |④---⑤-|
⑥口口口 |--⑥---|
55
口口口口 |①---|
口④口口 |----|
口口③口 |②---③-|
口②口① |--④---|
56
口口①口 |①---②-|
②口口③ |--③---|
④口口⑤ |④---⑤-|
⑥口口口 |--⑥---|
57
口口口口 |①---|
口口口口 |----|
口口口口 |----|
口口口① |----|
58
口口口口 |①---|
口口口口 |----|
口口口口 |----|
口①①口 |----|
59
口口口口 |①---|
口口口口 |----|
口①①口 |----|
口口口口 |----|
60
口口口口 |①---|
口①①口 |----|
口口口口 |----|
口口口口 |----|
61
口①①口 |①---|
口口口口 |----|
口口口口 |----|
口口口口 |----|
62
口口口口 |①---|
口口口口 |----|
口口口口 |----|
①口口① |----|
63
口口口口 |①---|
口口口口 |----|
①口口① |----|
口口口口 |----|
64
口口口口 |①---|
①口口① |----|
口口口口 |----|
口口口口 |----|
65
①口口① |①---|
口②口口 |----|
口口③口 |----|
口口口口 |②-③-|
66
口口口口 |①---|
口口②② |----|
口口口口 |②---|
口①口口 |----|
67
口口②② |①---|
口③口口 |----|
①①④口 |②---|
口口口口 |③-④-|
68
口口口口 |①---|
口口②② |----|
口口口口 |②---|
口①口口 |----|
69
①①口口 |①---|
口②②口 |----|
口③③口 |②---|
口口口口 |③---|
70
口口②② |①---|
口口口口 |----|
口口口口 |②---|
口①①口 |----|
71
口口口④ |①---|
③口口口 |②---|
口口口② |③---|
①口口口 |④---|
72
①口口口 |①---|
口口口口 |----|
口口②口 |②---|
口口口口 |----|
73
口口口口 |①---|
①①口口 |----|
口口②② |②---|
口③口口 |③---|
74
口口口口 |①---|
口口②② |----|
口口口口 |②---|
口口①口 |----|
75
口口②② |①---|
口③口口 |----|
①①④口 |②---|
口口口口 |③-④-|
76
口口口口 |①---|
口口②② |----|
口口口口 |②---|
口①口口 |----|
77
①①口口 |①---|
口②②口 |----|
口③③口 |②---|
口口口口 |③---|
78
口口②② |①---|
口口口口 |----|
口口口口 |②---|
口①①口 |----|
79
口口口④ |①---|
③口口口 |②---|
口口口② |③---|
①口口口 |④---|
80
①口口口 |①---|
口口口口 |----|
口口②口 |②---|
口口口口 |----|
81
口口口口 |①---|
①①口口 |----|
口口口口 |----|
口口口口 |----|
82
口口口口 |①---|
口口口口 |----|
口口口口 |----|
口①①口 |----|
83
口口口口 |①---|
口口口口 |----|
口①①口 |----|
口口口口 |----|
84
口口口口 |①---|
口①①口 |----|
口口口口 |----|
口口口口 |----|
85
口①①口 |①---|
口口口口 |----|
口口口口 |----|
口口口口 |----|
86
口口口口 |①---|
口口口口 |----|
口口口口 |----|
①口口① |----|
87
口口口口 |①---|
口口口口 |----|
①口口① |----|
口口口口 |----|
88
口口口口 |①---|
①口口① |----|
口口口口 |----|
口口口口 |----|
89
①口口① |①---|
口口口口 |----|
口口口口 |----|
口口口口 |----|

不確定度: 0

最終更新:2014年06月20日 02:38