Plan 8
Ryu☆

BASIC

Level: 5
BPM: 212
Notes: 444

1
口口口口 |----|
口口口口 |----|
口口口口 |----|
口口口口 |----|
2
口口口口 |①---|
口口口口 |----|
口口口口 |②---|
①口口② |----|
3
口口口口 |①---|
口③③口 |----|
口②②口 |②---|
①口口口 |③---|
4
口口口口 |①---|
口口口口 |----|
口口口口 |②---|
②口口① |----|
5
口口口口 |①---|
口③③口 |----|
口②②口 |②---|
口口口① |③---|
6
①口口② |①---|
口口口口 |----|
口口口口 |②---|
口口口口 |----|
7
①口口口 |①---|
口②②口 |----|
口③③口 |②---|
口口口口 |③---|
8
口②①口 |①---|
口④③口 |②---|
口口口口 |③---|
口口口口 |④---|
9
⑧口口⑦ |①-②-|
⑥口口⑤ |③-④-|
④口口③ |⑤-⑥-|
②口口① |⑦-⑧-|
10
口口口口 |----|
口口口口 |----|
口口口口 |----|
口口口口 |----|
11
口口口口 |①---|
口口口口 |②---|
③口口① |③---|
②口口④ |④---|
12
口口口口 |①---|
口③③口 |②---|
口②②口 |③---|
口①①口 |----|
13
口口口口 |①---|
口口口口 |②---|
①口口③ |③---|
④口口② |④---|
14
口④④口 |①---|
口③③口 |②---|
口②②口 |③---|
口①①口 |④---|
15
口口口口 |①---|
口口口口 |②---|
③口口① |③---|
②口口④ |④---|
16
口口口口 |①---|
口③③口 |②---|
口②②口 |③---|
口①①口 |----|
17
口口口口 |①---|
口口口口 |②---|
①口口③ |③---|
④口口② |④---|
18
④口口④ |①---|
口③③口 |②---|
口②②口 |③---|
口①①口 |④---|
19
口口口口 |①---|
④口口① |②---|
口口口口 |③---|
②口口③ |④---|
20
口口口口 |①---|
口④③口 |②---|
口②①口 |③---|
口口口口 |④---|
21
口口口口 |①---|
④口口① |②---|
口口口口 |③---|
②口口③ |④---|
22
口口口口 |①---|
口④③口 |②---|
口②①口 |③---|
口口口口 |④---|
23
④口口① |①---|
口口口口 |②---|
②口口③ |③---|
口口口口 |④---|
24
口④③口 |①---|
口②①口 |②---|
口口口口 |③---|
口口口口 |④---|
25
④口口① |①---|
口口口口 |②---|
②口口③ |③---|
口口口口 |④---|
26
口④③口 |①---|
口②①口 |②---|
口口口口 |③---|
口口口口 |④---|
27
口口口④ |①---|
口口口③ |②---|
口口口② |③---|
口口口① |④---|
28
①口口口 |①---|
②口口口 |②---|
③口口口 |③---|
④口口口 |④---|
29
口口④口 |①---|
口口③口 |②---|
口口②口 |③---|
口口①口 |④---|
30
口①口口 |①---|
口②口口 |②---|
口③口口 |③---|
口④口口 |④---|
31
口口口④ |①---|
口口口③ |②---|
口口口② |③---|
口口口① |④---|
32
①口口口 |①---|
②口口口 |②---|
③口口口 |③---|
④口口口 |④---|
33
口口④口 |①---|
口口③口 |②---|
口口②口 |③---|
口口①口 |④---|
34
口④口口 |①---|
口③口口 |②---|
口②口口 |③---|
口①口口 |④---|
35
②口口① |①---|
口④③口 |②---|
口口⑤口 |③--④|
口口口口 |--⑤-|
36
口口口口 |①---|
口口口口 |②---|
口⑤口口 |③--④|
①③④② |--⑤-|
37
①口口② |①---|
口③④口 |②---|
口⑤口口 |③--④|
口口口口 |--⑤-|
38
口口口口 |①---|
口口口口 |②---|
口口⑤口 |③--④|
②④③① |--⑤-|
39
口口口口 |①---|
②④③① |②---|
口口⑤口 |③--④|
口口口口 |--⑤-|
40
口口口口 |①---|
口口口口 |②---|
口⑤口口 |③--④|
①③④② |--⑤-|
41
口口口口 |①---|
①③④② |②---|
口⑤口口 |③--④|
口口口口 |--⑤-|
42
口口口口 |①---|
口口口口 |②---|
口口⑤口 |③--④|
②④③① |--⑤-|
43
口口口口 |----|
口口口口 |----|
口口口口 |----|
口口口口 |----|
44
口口口口 |----|
口口口口 |----|
口口口口 |----|
口口口口 |----|
45
口口口口 |----|
口口口口 |----|
口口口口 |----|
口口口口 |----|
46
口口口口 |----|
口①①口 |----|
口口口口 |----|
口口口口 |①---|
47
口口口口 |①---|
口口口口 |----|
口①①口 |----|
口口口口 |----|
48
口口口口 |----|
口口口口 |----|
口口口口 |----|
口口口口 |----|
49
④口口④ |①---|
③口口③ |②---|
②口口② |③---|
①口口① |④---|
50
口口⑦口 |①-②-|
口⑥⑤口 |③-④-|
口④③口 |⑤-⑥-|
口②①口 |⑦---|
51
口口口口 |①---|
①口口③ |②---|
口口口口 |③---|
④口口② |④---|
52
口口口口 |①---|
口③③口 |②---|
②口口② |③---|
口①①口 |----|
53
口口口口 |①---|
③口口① |②---|
口口口口 |③---|
②口口④ |④---|
54
③口口③ |①---|
口④④口 |②---|
②口口② |③---|
口①①口 |④---|
55
口口口口 |①---|
①口口③ |②---|
口口口口 |③---|
④口口② |④---|
56
③口口③ |①---|
口②②口 |②---|
①口口① |③---|
口口口口 |----|
57
口口口口 |①---|
③口口① |②---|
口口口口 |③---|
②口口④ |④---|
58
④口口④ |①---|
口③③口 |②---|
②口口② |③---|
口①①口 |④---|
59
口①①口 |①---|
②口口② |②---|
口③③口 |③---|
④口口④ |④---|
60
④口口④ |①---|
口③③口 |②---|
②口口② |③---|
口①①口 |④---|
61
口口口口 |①---|
口口口口 |②---|
④口③③ |③---|
②口①① |④---|
62
④口③③ |①---|
②口①① |②---|
口口口口 |③---|
口口口口 |④---|
63
⑧口口⑦ |①-②-|
⑥口口⑤ |③-④-|
④口口③ |⑤-⑥-|
②口口① |⑦-⑧-|
64
口口⑦口 |①-②-|
口⑥⑤口 |③-④-|
口④③口 |⑤-⑥-|
口②①口 |⑦---|
65
口口口口 |----|
口口口口 |----|
口口口口 |----|
口口口口 |----|
66
口口口口 |①---|
①口口① |----|
口口口口 |----|
口口口口 |----|
67
口口口口 |①---|
口口口口 |----|
口②①口 |②---|
口口口口 |----|
68
口口口口 |①---|
口口口口 |----|
口口口口 |----|
①口口① |----|
69
口口口口 |①---|
口③口口 |----|
口①②口 |②---|
口口口口 |③---|
70
口口①口 |①---|
口口口① |----|
口口口口 |----|
口口口口 |----|
71
口口口① |①---|
口口②口 |----|
口口口口 |②---|
口口口口 |----|
72
②口口口 |①---|
口口口口 |----|
①口口口 |----|
口①口口 |②---|
73
口口口口 |①---|
口②①口 |②---|
口④③口 |③---|
口口口口 |④---|
74
口口口口 |①---|
口口口口 |----|
口口口① |----|
口口①口 |----|
75
口口口口 |①---|
口②口口 |----|
口口①口 |②---|
口口口口 |----|
76
①口口① |①---|
口口口口 |----|
口口口口 |----|
口口口口 |----|
77
口口口口 |①---|
口口③口 |----|
口②口口 |②---|
口口①口 |③---|
78
①口口① |①---|
口口口口 |----|
口口口口 |----|
口口口口 |----|
79
口口口口 |①---|
口②①口 |----|
口①②口 |②---|
口口口口 |----|
80
口口口口 |①---|
①口口① |----|
①口口① |----|
口口口口 |----|
81
口口口口 |----|
口口口口 |----|
口口口口 |①---|
①口口口 |----|
82
口口口① |①---|
口②口口 |----|
③口②口 |②---|
口③口口 |③---|
83
口口口口 |----|
口口口口 |----|
口口口② |①---|
口口口① |②---|
84
口口口口 |①---|
①口口① |----|
③口口口 |②---|
②口口口 |③---|
85
口口口口 |①---|
①口口① |----|
口②②口 |②---|
口口口③ |③---|
86
①口口口 |①---|
口口②口 |----|
口②口③ |②---|
口口③口 |③---|
87
口口口口 |----|
口口口口 |----|
口②口口 |①---|
口①口口 |②---|
88
口口口口 |①---|
口①口① |----|
口口③口 |②---|
口口②口 |③---|
89
口口口口 |①---|
①口①口 |----|
口口口口 |②---|
口②②口 |----|
90
口口口口 |----|
口口口口 |----|
口口口口 |----|
①口口口 |①---|
91
口口①口 |①---|
口②口① |----|
③口②口 |②---|
口③口口 |③---|
92
口口口口 |----|
口口口口 |----|
口口②② |①---|
口口口① |②---|
93
口口口口 |①---|
口①口① |----|
③③口口 |②---|
②口口口 |③---|
94
口口口口 |①---|
①口①口 |----|
口口口口 |②---|
口②②③ |③---|
95
口①口口 |①---|
①口②口 |----|
口②口③ |②---|
口口③口 |③---|
96
口口口口 |----|
②口②口 |----|
口①口口 |①---|
口口口口 |②---|
97
①①①口 |①---|
口③口③ |----|
口口②口 |②---|
口口口口 |③---|
98
口①①① |①---|
口口口口 |----|
口②②口 |②---|
口③③口 |③---|
99
口口口口 |①---|
①②②① |----|
③口口③ |②---|
口口口口 |③---|
100
口口口口 |----|
口①①口 |----|
口②②口 |①---|
口口口口 |②---|
101
②口口② |①---|
③口口③ |----|
口口口口 |②---|
口①①口 |③---|
102
口口口口 |①---|
口口口口 |----|
①口口① |----|
口②②口 |②---|
103
①口口① |①---|
口②②口 |----|
口③③口 |②---|
口口口口 |③---|
104
口口口口 |----|
口口口口 |----|
②口口② |①---|
口①①口 |②---|
105
口口口口 |①---|
①口口① |----|
③口口③ |②---|
口②②口 |③---|
106
口②②口 |①---|
口口口口 |----|
口①①口 |②---|
口口口口 |----|
107
①口口① |①---|
口①①口 |----|
口口口口 |----|
口口口口 |----|

不確定度: 0

最終更新:2014年06月20日 02:40