女子力←パラダイス
SUPER☆GiRLS

ADVANCED

Level: 6
BPM: 140
Notes: 401

全程BPM在140附近飄忽不定
1
口口口口 |----|
口口口口 |----|
口口口口 |----|
口口口口 |----|
2
口口口口 |①---|
口口口口 |----|
口口口口 |----|
①口口① |----|
3
口口口口 |①---|
口口口口 |----|
②口口② |②---|
口①①口 |----|
4
口口口口 |①---|
口②①口 |②---|
口①②口
口口口口

口口口③
口④口口
口口④口 |③---|
③口口口 |--④-|
5
口口口③ |--①-|
②口①口 |②---|
口①口② |③---|
③口口口 |----|
6
口口口③ |①---|
口②①口 |②---|
口①②口 |③---|
③口口口 |----|
7
③口口口 |①---|
口①①口 |----|
口口口口 |②---|
②口口② |③---|
8
口口口口 |①---|
口②①口 |②---|
口①②口
口口口口

口口口③
口④口口
口口④口 |③---|
③口口口 |--④-|
9
口口口③ |--①-|
②口①口 |②---|
口①口② |③---|
③口口口 |----|
10
口口口③ |①---|
口②①口 |②---|
口①②口 |③---|
③口口口 |----|
11
①口口② |①--②|
口口口口 |--③-|
口③③口 |④---|
口④④口 |----|
12
②口口⑤ |①-②-|
口口口口 |--③-|
①⑥③④ |④-⑤-|
口口口口 |--⑥-|
13
口①②口 |①-②-|
口③④口 |③-④-|
⑥口口口 |⑤---|
口⑤⑤口 |--⑥-|
14
②口口⑤ |①-②-|
①口口口 |--③-|
口⑥③④ |④-⑤-|
口口口口 |--⑥-|
15
口口口口 |①-②-|
口④③口 |③-④-|
口⑤⑤口 |⑤---|
口②①口 |----|
16
②口口⑤ |①-②-|
口口口口 |--③-|
①⑥③④ |④-⑤-|
口口口口 |--⑥-|
17
口①②口 |①-②-|
口③④口 |③-④-|
口口口口 |⑤---|
口⑤⑤口 |----|
18
口②②口 |①---|
口②②口 |----|
①①①① |②---|
口口口口 |----|
19
口②②口 |①---|
口②②口 |----|
①①①① |②---|
口口口口 |----|
20
②口口⑤ |①-②-|
①口口④ |--③-|
口⑥③口 |④-⑤-|
口口口口 |--⑥-|
21
口①②口 |①-②-|
口③④口 |③-④-|
⑥口口口 |⑤---|
口⑤⑤口 |--⑥-|
22
②口口⑤ |①-②-|
①口口口 |--③-|
口⑥③④ |④-⑤-|
口口口口 |--⑥-|
23
口口口口 |①-②-|
口④③口 |③-④-|
口⑤⑤口 |⑤---|
口②①口 |----|
24
②口口⑤ |①-②-|
口口口口 |--③-|
①⑥③④ |④-⑤-|
口口口口 |--⑥-|
25
口①②口 |①-②-|
口③④口 |③-④-|
口口口口 |⑤---|
口⑤⑤口 |----|
26
②⑤⑤② |①---|
口口口口 |②---|
口③④口 |③-④-|
①口口① |⑤---|
27
口口口口 |①-②-|
②④④② |③-④-|
①③③①
口口口口

口⑤⑤口
口口口口
⑦口口⑦ |⑤-⑥-|
⑥口口⑥ |⑦---|
28
口④口口 |----|
口口口口 |①---|
口口②③ |②-③-|
①口口口 |--④-|
29
口口口口 |--①-|
口口①口 |--②-|
口②口口 |--③-|
口口③口 |----|
30
口口口口 |①---|
①口口① |②-③-|
口③口口
口②口口

口口④口
⑤口口⑤
口口口口 |--④-|
口口口口 |--⑤-|
31
口口口口 |-①②-|
口口口口 |----|
口口口口 |----|
口①②口 |----|
32
口⑤口口 |----|
口口③口 |①-②-|
口②口口 |③---|
口④口① |④-⑤-|
33
口口口口 |--①-|
口口①口 |--②-|
口②口口 |--③-|
口口③口 |----|
34
口口口口 |①---|
口口②④ |--②-|
③口口③ |③---|
①口口① |--④-|
35
口④④口 |①---|
口③③口 |②---|
口②②口 |③---|
口①①口 |④---|
36
①口口① |①---|
口②②口 |----|
口③③口 |----|
口口口口 |--②③|
37
口②②口 |①---|
口口口口 |②-③-|
口口口口
③①①③

口口口口
口口口口
④口口④ |--④-|
口⑤⑤口 |--⑤-|
38
口③口口 |--①-|
口口②口 |②-③-|
口①口口
口口口口

口口口口
口④④口
口⑤⑤口 |----|
口口口口 |--④⑤|
39
口②②口 |①---|
口口口口 |②-③-|
口口口口
③①①③

口口口⑤
口口口⑤
口④口口 |--④-|
口口④口 |--⑤-|
40
②③①口 |--①-|
②③①口 |--②-|
口口口口 |--③-|
口口口口 |----|
41
①③④② |----|
口⑤⑥口 |①-②-|
口口口口 |③-④-|
口口口口 |⑤-⑥-|
42
口口口口 |①-②-|
③⑤⑥④ |③-④-|
口①口口 |----|
口口②口 |--⑤⑥|
43
口④口口 |①---|
口口⑤① |②-③-|
口⑥口口 |--④-|
②口口③ |⑤-⑥-|
44
口口口口 |----|
口①①口 |----|
口②②口 |----|
口口口口 |--①②|
45
口②②口 |①---|
口口口口 |②-③-|
口口口口
③①①③

口口口口
口口口口
④口口④ |--④-|
口⑤⑤口 |--⑤-|
46
口③口口 |--①-|
口口②口 |②-③-|
口①口口
口口口口

口口口口
口④④口
口⑤⑤口 |----|
口口口口 |--④⑤|
47
口②②口 |①---|
口口口口 |②-③-|
口口口口
③①①③

口口口⑤
口口口⑤
口④口口 |--④-|
口口④口 |--⑤-|
48
②③①口 |--①-|
②③①口 |--②-|
口口口口 |--③-|
口口口口 |----|
49
①③④② |----|
口⑤⑥口 |①-②-|
口口口口 |③-④-|
口口口口 |⑤-⑥-|
50
口口口口 |①---|
②口口③ |②-③-|
口口①口 |----|
口①口口 |----|
51
①③④② |----|
口⑤⑥口 |①-②-|
口口口口 |③-④-|
口口口口 |⑤-⑥-|
52
口口口口 |①-②-|
③口口④ |③-④-|
口口口口 |----|
口①②口 |----|
53
①口口① |①---|
口口口口 |②-③-|
口口口口
口②③口

④口口④
⑤口口⑤
口口口口 |--④-|
口口口口 |--⑤-|
54
②口口口 |--①-|
口口口口 |--②-|
①口口①
口口口口

口④口③
口口口口
⑤口⑤口 |③-④-|
口⑤口⑤ |⑤---|
55
口口口口 |①---|
口口口口 |----|
口①口① |----|
①口①口 |----|
56
口口口口 |①---|
口②①口 |②---|
口①②口
口口口口

口口口③
口④口口
口口④口 |③---|
③口口口 |--④-|
57
口口口③ |--①-|
②口①口 |②---|
口①口② |③---|
③口口口 |----|
58
口口口③ |①---|
口②①口 |②---|
口①②口 |③---|
③口口口 |----|
59
③口口口 |①---|
口①①口 |----|
口口口口 |②---|
②口口② |③---|
60
口口口口 |①---|
口②①口 |②---|
口①②口
口口口口

口口口③
口④口口
口口④口 |③---|
③口口口 |--④-|
61
口口口③ |--①-|
②口①口 |②---|
口①口② |③---|
③口口口 |----|
62
口口口③ |①---|
口②①口 |②---|
口①②口 |③---|
③口口口 |----|
63
①口口② |①--②|
口口口口 |--③-|
口③③口 |④---|
口④④口 |----|
64
口③③口 |①---|
①口口① |----|
口②②口 |----|
①口口① |②-③-|


不確定度: 0

タグ:

+ タグ編集
  • タグ:

このサイトはreCAPTCHAによって保護されており、Googleの プライバシーポリシー利用規約 が適用されます。

最終更新:2013年04月07日 23:39