Plan 8
Ryu☆

ADVANCED

Level: 8
BPM: 212
Notes: 666

1
口口口口 |----|
口口口口 |----|
口口口口 |----|
口口口口 |----|
2
口口口④ |①---|
口口口③ |②---|
口口口② |③---|
口①口① |④---|
3
口口⑥⑤ |①---|
口口④③ |②---|
口口口② |③-④-|
口口口① |⑤-⑥-|
4
④口口口 |①---|
③口口口 |②---|
②口口口 |③---|
①口口① |④---|
5
⑤⑥口口 |①---|
③④口口 |②---|
②口口口 |③-④-|
①口口口 |⑤-⑥-|
6
口口口④ |①---|
口口口③ |②---|
口口口② |③---|
①口口① |④---|
7
口口⑥⑤ |①---|
口口④③ |②---|
口口口② |③-④-|
口口口① |⑤-⑥-|
8
口口口口 |①-②-|
口口口⑧ |③-④-|
⑦⑤④⑥ |⑤-⑥-|
①③②① |⑦-⑧-|
9
⑦⑤④⑥ |①-②-|
①③②⑧ |③-④-|
口口口口 |⑤-⑥-|
口口口口 |⑦-⑧-|
10
口口口口 |----|
口口口口 |----|
口口口口 |----|
①口口口 |①---|
11
①口口口 |①---|
口口口口 |②---|
口⑤④③ |③-④-|
口⑤②② |⑤---|
12
⑤口口④ |①-②-|
③口口② |③-④-|
①口口口 |⑤---|
口口⑥⑥ |⑥---|
13
口口①口 |①---|
口口口口 |②---|
③④⑤口 |③-④-|
②②⑤口 |⑤---|
14
④⑥⑦⑤ |①-②-|
②⑧口③ |③-④-|
口口口① |⑤-⑥-|
口口口口 |⑦-⑧-|
15
口口口口 |①---|
口口①口 |②---|
③④⑤口 |③-④-|
②②⑤口 |⑤---|
16
④口口⑤ |①-②-|
②口口③ |③-④-|
口口口① |⑤---|
⑥⑥口口 |⑥---|
17
口①口口 |①---|
口口口口 |②---|
口⑤④③ |③-④-|
口⑤②② |⑤---|
18
⑤⑦⑥④ |①-②-|
③口口② |③-④-|
①口口口 |⑤-⑥-|
口口口口 |⑦---|
19
口口口口 |①-②-|
⑥⑧⑦⑤ |③-④-|
④口口③ |⑤-⑥-|
②口口① |⑦-⑧-|
20
⑧口口⑦ |①-②-|
⑥口口⑤ |③-④-|
口②①口 |⑤-⑥-|
口④③口 |⑦-⑧-|
21
口口口口 |①-②-|
⑥⑧⑦⑤ |③-④-|
④口口③ |⑤-⑥-|
②口口① |⑦-⑧-|
22
⑧口口⑦ |①-②-|
⑥口口⑤ |③-④-|
口②①口 |⑤-⑥-|
口④③口 |⑦-⑧-|
23
口口口口 |①-②-|
口⑧⑦口 |③-④-|
④⑥⑤③ |⑤-⑥-|
②口口① |⑦-⑧-|
24
④口口③ |①-②-|
②口口① |③-④-|
口⑧⑦口 |⑤-⑥-|
口⑥⑤口 |⑦-⑧-|
25
口口口口 |①-②-|
⑥⑧⑦⑤ |③-④-|
④口口③ |⑤-⑥-|
②口口① |⑦-⑧-|
26
⑧口口⑦ |①-②-|
⑥口口⑤ |③-④-|
口②①口 |⑤-⑥-|
口④③口 |⑦-⑧-|
27
口②①口 |①-②-|
口④③口 |③-④-|
⑥口口⑤ |⑤-⑥-|
⑧口口⑦ |⑦-⑧-|
28
⑧口口⑦ |①-②-|
⑥口口⑤ |③-④-|
口④③口 |⑤-⑥-|
口②①口 |⑦-⑧-|
29
口②①口 |①-②-|
口④③口 |③-④-|
⑥口口⑤ |⑤-⑥-|
⑧口口⑦ |⑦-⑧-|
30
⑧口口⑦ |①-②-|
⑥口口⑤ |③-④-|
口④③口 |⑤-⑥-|
口②①口 |⑦-⑧-|
31
口④③口 |①-②-|
口②①口 |③-④-|
⑧口口⑦ |⑤-⑥-|
⑥口口⑤ |⑦-⑧-|
32
⑧口口⑦ |①-②-|
口⑥⑤口 |③-④-|
口②①口 |⑤-⑥-|
口④③口 |⑦-⑧-|
33
口口口口 |①-②-|
②口口① |③-④-|
④⑥⑤③ |⑤-⑥-|
口⑧⑦口 |⑦-⑧-|
34
口⑤④② |①-②-|
口口③① |③-④-|
口口口口 |⑤---|
口口口口 |----|
35
口④口口 |①-②-|
③⑤口⑥ |③---|
②⑦口口 |④--⑤|
①口口口 |⑥-⑦-|
36
④口口口 |①-②-|
⑤口⑥口 |③---|
③⑦口① |④--⑤|
②口口口 |⑥-⑦-|
37
口口④③ |①-②-|
⑥口⑤② |③---|
口口⑦① |④--⑤|
口口口口 |⑥-⑦-|
38
口③口④ |①-②-|
⑥②⑤口 |③---|
①口口⑦ |④--⑤|
口口口口 |⑥-⑦-|
39
④③口口 |①-②-|
口②口口 |③---|
⑤①⑥口 |④--⑤|
⑦口口口 |⑥-⑦-|
40
口口口④ |①-②-|
⑥口⑤③ |③---|
口口⑦② |④--⑤|
口口①口 |⑥-⑦-|
41
④③口口 |①-②-|
⑤②⑥口 |③---|
①⑦口口 |④--⑤|
口口口口 |⑥-⑦-|
42
口口口③ |--①-|
口⑤④② |②---|
口口⑥① |③--④|
口口口口 |⑤-⑥-|
43
⑦口口⑧ |①-②-|
⑤口口⑥ |③-④-|
③口口④ |⑤-⑥-|
①口口② |⑦-⑧-|
44
口①②口 |①-②-|
口③④口 |③-④-|
口⑤⑥口 |⑤-⑥-|
口⑦⑧口 |⑦-⑧-|
45
⑦口口⑧ |①-②-|
⑤口口⑥ |③-④-|
③口口④ |⑤-⑥-|
①口口② |⑦-⑧-|
46
口①②口 |①-②-|
口③④口 |③-④-|
口⑤⑥口 |⑤-⑥-|
⑦⑦口口 |⑦---|
47
⑥⑧口⑦ |①-②-|
④口口⑤ |③-④-|
②口口③ |⑤-⑥-|
口口①① |⑦-⑧-|
48
口口①口 |①-②-|
口②③口 |③-④-|
口④⑤口 |⑤-⑥-|
⑧⑥⑦口 |⑦-⑧-|
49
⑦⑥⑤④ |①-②-|
⑧口口③ |③-④-|
口口口② |⑤-⑥-|
口口口① |⑦-⑧-|
50
口口口口 |①-②-|
口口⑦口 |③-④-|
①⑥口口 |⑤-⑥-|
②③④⑤ |⑦---|
51
①⑤④③ |①---|
口⑤口口 |②---|
口口②② |③-④-|
口口口口 |⑤---|
52
口口口口 |①-②-|
⑤口口口 |③-④-|
③口口④ |⑤---|
①⑥⑥② |⑥---|
53
③④⑤① |①---|
口口⑤口 |②---|
口②②口 |③-④-|
口口口口 |⑤---|
54
口口口口 |①-②-|
⑥⑧⑦⑤ |③-④-|
④口口③ |⑤-⑥-|
②口口① |⑦-⑧-|
55
口口口① |①---|
口口口口 |②---|
③④⑤口 |③-④-|
②②⑤口 |⑤---|
56
④口口⑤ |①-②-|
②口口③ |③-④-|
口口口① |⑤---|
口⑥⑥口 |⑥---|
57
口①口口 |①---|
口⑤④③ |②---|
口⑤②② |③-④-|
口口口口 |⑤---|
58
口口口口 |①-②-|
⑤口口⑥ |③-④-|
③⑦⑧④ |⑤-⑥-|
①口口② |⑦-⑧-|
59
口口口口 |①-②-|
口口口口 |③-④-|
⑤⑦⑧⑥ |⑤-⑥-|
③①②④ |⑦-⑧-|
60
⑤③④⑥ |①-②-|
⑦①②⑧ |③-④-|
口口口口 |⑤-⑥-|
口口口口 |⑦-⑧-|
61
口口口口 |①-②-|
口口口口 |③-④-|
③⑤⑥④ |⑤-⑥-|
①⑦⑧② |⑦-⑧-|
62
口口口口 |①-②-|
⑤⑦⑧⑥ |③-④-|
③口口④ |⑤-⑥-|
①口口② |⑦-⑧-|
63
⑦口口⑧ |①-②-|
⑤口口⑥ |③-④-|
③①②④ |⑤-⑥-|
口口口口 |⑦-⑧-|
64
口①②口 |①-②-|
口③④口 |③-④-|
口⑤⑥口 |⑤-⑥-|
⑦口口⑦ |⑦---|
65
口口口口 |----|
口口口口 |----|
口口①口 |----|
口口口口 |①---|
66
①口口① |①---|
口口口口 |----|
口口口口 |----|
口口口口 |----|
67
口口口口 |①---|
口口①口 |----|
口②口口 |②---|
口口口口 |----|
68
口口口口 |①---|
口口口口 |----|
口口口口 |----|
口口①① |----|
69
口口口口 |①---|
口③口口 |----|
口口②口 |②---|
口①口口 |③---|
70
口口①① |①---|
口口口口 |----|
口口口口 |----|
口口口口 |----|
71
①口口口 |①---|
口口口口 |----|
口口②口 |②---|
口口口口 |----|
72
口口口口 |①---|
口①口口 |----|
①②口口 |----|
口口口口 |②---|
73
口口口① |①---|
口口②口 |②---|
口口口③ |③---|
口口④口 |④---|
74
口口口口 |①---|
口口口口 |----|
口口口口 |----|
①①口口 |----|
75
口口口口 |①---|
口②口口 |----|
①口口口 |②---|
口口口口 |----|
76
口口口口 |①---|
口口口① |----|
口口①口 |----|
口口口口 |----|
77
口口口口 |①---|
口口③口 |----|
口②口口 |②---|
口口①口 |③---|
78
①①口口 |①---|
口口口口 |----|
口口口口 |----|
口口口口 |----|
79
口口口口 |①---|
①口口② |----|
①口口② |②---|
口口口口 |----|
80
①口口① |①---|
口①①口 |----|
口口口口 |----|
口口口口 |----|
81
口口口口 |----|
口口口口 |----|
口口口口 |①---|
①口口口 |----|
82
口口①口 |①---|
③口④① |②---|
⑤口⑥口 |③-④-|
口②口口 |⑤-⑥-|
83
口口口口 |①---|
口口口④ |②---|
口口口③ |③---|
①②口口 |④---|
84
口⑥①① |①---|
⑥④③口 |②---|
②口⑤口 |③-④-|
口口口口 |⑤-⑥-|
85
口口口口 |①---|
口口口① |②---|
口口口③ |③---|
④口③② |④---|
86
口①口口 |①---|
①④③口 |②---|
口⑥⑤口 |③-④-|
口②口口 |⑤-⑥-|
87
口口口口 |①---|
④口口口 |②---|
③口口口 |③---|
①口口② |④---|
88
①①口口 |①---|
口⑤口② |②---|
口③④口 |③-④-|
口口口口 |--⑤-|
89
口口口口 |--①-|
②口①口 |--②-|
口口口③ |③---|
口口口口 |----|
90
口口口口 |----|
口口口口 |----|
口口口口 |----|
①口口① |①---|
91
①口口① |①---|
②④③口 |②---|
口⑥⑤口 |③-④-|
口口口口 |⑤-⑥-|
92
口口口口 |①---|
口口④④ |②---|
①口口③ |③---|
②口口口 |④---|
93
②①①① |①---|
口口⑤口 |②---|
口④③口 |③-④-|
口口口口 |--⑤-|
94
口②口口 |--①-|
口①口口 |--②-|
口口口③ |③---|
④口③④ |④---|
95
①口口① |①---|
②④③口 |②---|
口⑥⑤口 |③-④-|
口口口口 |⑤-⑥-|
96
口口口口 |①---|
④④口口 |②---|
③口口口 |③---|
②口①口 |④---|
97
①①①口 |①---|
⑤口口口 |②---|
口③④② |③-④-|
口口口口 |--⑤-|
98
口口口口 |--①-|
口口口口 |--②-|
①④口④ |③---|
②口③③ |④---|
99
口①口① |①-②-|
⑦⑧⑥⑤ |③-④-|
④口③口 |⑤-⑥-|
口②口口 |⑦-⑧-|
100
口⑥⑤口 |①-②-|
口口⑥⑤ |③-④-|
④口口③ |⑤---|
②口口① |⑥---|
101
①口口口 |①-②-|
⑤①口口 |③-④-|
口⑥⑦④ |⑤-⑥-|
③口⑦② |--⑦-|
102
口口口口 |①-②-|
⑦⑦口⑥ |③-④-|
⑤口口④ |⑤-⑥-|
③①口② |⑦---|
103
①①①① |①-②-|
口口②口 |③-④-|
⑤③④口 |⑤-⑥-|
口⑥⑦⑧ |⑦-⑧-|
104
③口口④ |①-②-|
①⑥⑥② |③-④-|
口⑤⑤口 |⑤---|
口口口口 |⑥---|
105
口①①⑧ |①-②-|
⑦口口⑥ |③-④-|
⑤口口④ |⑤-⑥-|
③口口② |⑦-⑧-|
106
口口口口 |①---|
口口口口 |----|
②口②口 |②---|
口①①口 |----|
107
口①口① |①---|
口口①口 |----|
口①口① |----|
口口口口 |----|

不確定度: 0

最終更新:2014年06月20日 02:40