Our Faith
kors k

BASIC

Level: 5
BPM: 175
Notes: 396

1
口口口口 |----|
口口口口 |----|
口口口口 |----|
口口口口 |----|
2
③口口② |①---|
口口口口 |②---|
口口口口 |③---|
④口口① |④---|
3
口口②口 |①---|
③口口口 |②---|
口口口① |③---|
口④口口 |④---|
4
口②口口 |①---|
口口口① |②---|
③口口口 |③---|
口口④口 |④---|
5
②口口① |①---|
口口口口 |②---|
口口口口 |③---|
③口口④ |④---|
6
口①②口 |①---|
口③④口 |②---|
口口口口 |③---|
口口口口 |④---|
7
口口口口 |①---|
口口口口 |②---|
口①②口 |③---|
口③④口 |④---|
8
①口口① |①---|
②口口② |②---|
③口口③ |③---|
④口口④ |④---|
9
口②②口 |①---|
口①①口 |----|
口①①口 |②---|
口③③口 |③---|
10
①口口② |①---|
①口口② |----|
口口口口 |②---|
口口口口 |----|
11
口①①口 |①---|
口②②口 |②---|
口③③口 |③---|
口④④口 |④---|
12
口口口口 |①---|
口口口口 |----|
①口口② |②---|
①口口② |----|
13
口④④口 |①---|
口③③口 |②---|
口②②口 |③---|
口①①口 |④---|
14
①口口② |①---|
①口口② |----|
口口口口 |②---|
口口口口 |----|
15
口①①口 |①---|
口②②口 |②---|
口③③口 |③---|
口④④口 |④---|
16
口口口口 |①---|
口口口口 |----|
①口口② |②---|
①口口② |----|
17
口④④口 |①---|
口③③口 |②---|
口②②口 |③---|
口①①口 |④---|
18
①口口① |①---|
口口口口 |----|
口口口口 |----|
口口口口 |----|
19
口口口口 |①---|
口口①口 |----|
口②口口 |②---|
口口口口 |----|
20
口口口② |①---|
口口口口 |----|
口口口口 |----|
口口①口 |②---|
21
口口①口 |①---|
口口口口 |----|
口口口口 |----|
口口口口 |----|
22
口口②② |①---|
口口口口 |----|
口口口口 |②---|
①①口口 |----|
23
口口口口 |①---|
口①口口 |----|
口口②口 |②---|
口口口口 |----|
24
口口口② |①---|
口口口口 |②---|
口口口口
口①口口

口口③口
口口口口
口口口口 |③---|
口④口口 |--④-|
25
口口口口 |--①-|
口口②① |②---|
口口口口 |----|
口口口口 |----|
26
口口②② |①---|
口口口口 |----|
①口口① |②---|
口口口口 |----|
27
口口口口 |①---|
口口①口 |----|
口②口口 |②---|
口口口口 |----|
28
口口口② |①---|
口口口口 |----|
口口口口 |----|
口口①口 |②---|
29
口口①口 |①---|
口口②口 |----|
口③口口 |②---|
口口口口 |③---|
30
口口口口 |①---|
口口口口 |----|
口口口口 |----|
口口①① |----|
31
口口口口 |①---|
口②②口 |----|
口口口口 |②---|
口①①口 |----|
32
①口口① |①---|
口口口口 |----|
口口口口 |----|
口口口口 |----|
33
口口口口 |----|
口口口口 |----|
口口口口 |----|
口口口口 |----|
34
口口口口 |①---|
①①②② |----|
口口口口 |②---|
口口口口 |----|
35
口口口口 |①---|
口口口口 |----|
①①②② |②---|
口口口口 |----|
36
口口口口 |①---|
口口口口 |----|
口口口口 |②---|
①①②② |----|
37
口口口口 |①---|
口①②口 |----|
口①②口 |②---|
口口口口 |----|
38
①口口① |①---|
②口口② |②---|
③口口③ |③---|
④口口④ |④---|
39
口①①口 |①---|
口②②口 |②---|
口③③口 |③---|
口④④口 |④---|
40
④口口④ |①---|
③口口③ |②---|
②口口② |③---|
①口口① |④---|
41
口②②口 |①---|
口①①口 |----|
口①①口 |②---|
口③③口 |③---|
42
②口口④ |①---|
口口口口 |②---|
①口口③ |③---|
口口口口 |④---|
43
口①①口 |①---|
口②②口 |②---|
口③③口 |③---|
口④④口 |④---|
44
口口口口 |①---|
②口口④ |②---|
口口口口 |③---|
①口口③ |④---|
45
口④④口 |①---|
口③③口 |②---|
口②②口 |③---|
口①①口 |④---|
46
②口口④ |①---|
口口口口 |②---|
①口口③ |③---|
口口口口 |④---|
47
口①①口 |①---|
口②②口 |②---|
口③③口 |③---|
口④④口 |④---|
48
口②②口 |①---|
口口口口 |----|
①口口① |②---|
口口口口 |----|
49
口口口口 |①---|
②口口② |----|
口①①口 |②---|
口口口口 |----|
50
②口口④ |①---|
口口口口 |②---|
①口口③ |③---|
口口口口 |④---|
51
口①①口 |①---|
口②②口 |②---|
口③③口 |③---|
口④④口 |④---|
52
口口口口 |①---|
②口口④ |②---|
口口口口 |③---|
①口口③ |④---|
53
口④④口 |①---|
口③③口 |②---|
口②②口 |③---|
口①①口 |④---|
54
①口口① |①---|
口口口口 |----|
②口口② |②---|
口口口口 |----|
55
口口口口 |①---|
口①①口 |----|
口口口口 |②---|
②口口② |----|
56
口口口口 |①---|
口②②口 |----|
口②②口 |②---|
口①①口 |----|
57
口口口口 |①---|
口口口口 |②---|
口口口口 |③---|
①②③④ |④---|
58
①①③③ |①---|
口口口口 |②---|
②②④④ |③---|
口口口口 |④---|
59
口口口口 |①---|
③①①③ |②---|
口口口口 |③---|
④②②④ |④---|
60
②口口② |①---|
④口口④ |②---|
口①①口 |③---|
口③③口 |④---|
61
口口口口 |①---|
口口口口 |②---|
①②②① |③---|
③④④③ |④---|
62
①①③③ |①---|
口口口口 |②---|
②②④④ |③---|
口口口口 |④---|
63
口口口口 |①---|
③①①③ |②---|
口口口口 |③---|
④②②④ |④---|
64
②口口② |①---|
④口口④ |②---|
口①①口 |③---|
口③③口 |④---|
65
口口口口 |①---|
口口口口 |②---|
①②②① |③---|
③④④③ |④---|
66
口口口口 |①---|
口①①口 |----|
口②③口 |----|
口口口口 |②-③-|
67
口①①口 |----|
②①①② |①---|
口口口口 |②---|
③口口③ |③---|
68
②口口② |①---|
④口口④ |②---|
口①①口 |③---|
口③③口 |④---|
69
口口口口 |①---|
口口口口 |②---|
①②②① |③---|
③④④③ |④---|
70
③③②② |①---|
①①④④ |②---|
口口口口 |③---|
口口口口 |④---|
71
口口口口 |①---|
口口口口 |②---|
③③②② |③---|
①①④④ |④---|
72
口①①口 |①---|
口②②口 |②---|
口③③口 |③---|
口④④口 |④---|
73
①①①① |①---|
②②②② |②---|
③③③③ |③---|
④④④④ |④---|
74
①①①① |①---|
口口口口 |----|
口口口口 |----|
口口口口 |----|

不確定度: 0

最終更新:2014年03月16日 15:35