にんじゃりばんばん
きゃりーぱみゅぱみゅ

BASIC

Level: 1
BPM: 130
Notes: 164

1
口口口口 |----|
口口口口 |----|
口口口口 |----|
口口口口 |----|
2
口口口口 |①---|
口口口口 |----|
口口口口 |②---|
口①②口 |----|
3
口口口口 |①---|
口口口口 |----|
口①②口 |②---|
口口口口 |----|
4
口口口口 |①---|
口①②口 |----|
口口口口 |②---|
口口口口 |----|
5
口①②口 |①---|
口口口口 |----|
口口口口 |②---|
口口口口 |----|
6
①口口口 |①---|
口口口口 |----|
口口口口 |----|
口口口口 |----|
7
口口口口 |----|
口口口口 |----|
口口口口 |----|
口口口口 |----|
8
口口口口 |----|
口口口口 |----|
口口口口 |----|
口口口口 |----|
9
口口口口 |①---|
口口口口 |----|
口口口口 |②---|
①②③① |③---|
10
③口口③ |①---|
口②②口 |----|
口①口口 |②---|
口口口口 |③---|
11
③口口③ |①---|
口②②口 |----|
口①口口 |②---|
口口口口 |③---|
12
口①口口 |①---|
口口②口 |----|
口口口口 |②---|
口口口口 |----|
13
口口口口 |①---|
口口口口 |----|
口①口口 |②---|
口口②口 |----|
14
③口口③ |①---|
口②②口 |----|
口①口口 |②---|
口口口口 |③---|
15
③口口③ |①---|
口②②口 |----|
口①口口 |②---|
口口口口 |③---|
16
口①口口 |①---|
口口②口 |----|
口口口口 |②---|
口口口口 |----|
17
口口口口 |①---|
口口口口 |----|
口①口口 |②---|
口口②口 |----|
18
③口口③ |①---|
口②②口 |----|
口①口口 |②---|
口口口口 |③---|
19
③口口③ |①---|
口②②口 |----|
口①口口 |②---|
口口口口 |③---|
20
口①口口 |①---|
口口②口 |----|
口口口口 |②---|
口口口口 |----|
21
口口口口 |①---|
口口口口 |----|
口①口口 |②---|
口口②口 |----|
22
③口口③ |①---|
口②②口 |----|
口①口口 |②---|
口口口口 |③---|
23
③口口③ |①---|
口②②口 |----|
口①口口 |②---|
口口口口 |③---|
24
口①口口 |①---|
口口②口 |----|
口口口口 |②---|
口口口口 |----|
25
口口口口 |①---|
口口口口 |----|
口①口口 |②---|
口口②口 |----|
26
口口口口 |①---|
口口口口 |----|
口口口口 |②---|
①②口口 |----|
27
口口口口 |①---|
口口口口 |----|
口口口口 |②---|
口口①② |----|
28
口口口口 |①---|
口口口口 |----|
口口②① |②---|
口口口口 |----|
29
口口口口 |①---|
口口口口 |----|
②①口口 |②---|
口口口口 |----|
30
口口口口 |①---|
口①口口 |----|
口口口口 |----|
口口口口 |----|
31
口口口口 |①---|
口口①口 |----|
口口口口 |----|
口口口口 |----|
32
口口口口 |①---|
口口口① |----|
口口口口 |----|
口口口口 |----|
33
口口②① |①---|
口口口口 |----|
口口口口 |②---|
口口口口 |----|
34
口①口口 |①---|
口口口口 |----|
口口口口 |----|
口口口口 |----|
35
口口口口 |①---|
①口口口 |----|
口②口口 |②---|
口口口口 |----|
36
口口口口 |①---|
口口口口 |----|
口口口② |②---|
口口①口 |----|
37
口口口口 |----|
口①①口 |----|
口口口口 |①---|
口口口口 |----|
38
口口口口 |①---|
口口口口 |----|
口①①口 |----|
口口口口 |----|
39
口口口口 |①---|
①口口口 |----|
口口口口 |----|
口口口口 |----|
40
口①口口 |①---|
口口口口 |----|
口口口口 |----|
口口口口 |----|
41
口口口口 |①---|
口口①口 |----|
口②口口 |②---|
口口口口 |----|
42
口口口口 |①---|
口口口口 |----|
口口口口 |②---|
口②①口 |----|
43
口口口口 |①---|
口②口口 |----|
口口①口 |②---|
口口口口 |----|
44
口口①口 |①---|
口口口口 |----|
口口口口 |----|
口口口口 |----|
45
口口口口 |①---|
口口口口 |----|
口口口口 |②---|
①②③① |③---|
46
③口口③ |①---|
口②②口 |----|
口①口口 |②---|
口口口口 |③---|
47
③口口③ |①---|
口②②口 |----|
口①口口 |②---|
口口口口 |③---|
48
口①口口 |①---|
口口②口 |----|
口口口口 |②---|
口口口口 |----|
49
口口口口 |①---|
口口口口 |----|
口①口口 |②---|
口口②口 |----|
50
③口口③ |①---|
口②②口 |----|
口①口口 |②---|
口口口口 |③---|
51
③口口③ |①---|
口②②口 |----|
口①口口 |②---|
口口口口 |③---|
52
口①口口 |①---|
口口②口 |----|
口口口口 |②---|
口口口口 |----|
53
口口口口 |①---|
口口口口 |----|
口①口口 |②---|
口口②口 |----|
54
③口口③ |①---|
口②②口 |----|
口①口口 |②---|
口口口口 |③---|
55
③口口③ |①---|
口②②口 |----|
口①口口 |②---|
口口口口 |③---|
56
口①口口 |①---|
口口②口 |----|
口口口口 |②---|
口口口口 |----|
57
口口口口 |①---|
口口口口 |----|
口①口口 |②---|
口口②口 |----|
58
③口口③ |①---|
口②②口 |----|
口①口口 |②---|
口口口口 |③---|
59
③口口③ |①---|
口②②口 |----|
口①口口 |②---|
口口口口 |③---|
60
口①口口 |①---|
口口②口 |----|
口口口口 |②---|
口口口口 |----|
61
口口口口 |①---|
口口口口 |----|
口①口口 |②---|
口口②口 |----|
62
口口口口 |①---|
口①①口 |----|
口①①口 |----|
口口口口 |----|

不確定度: 0

最終更新:2014年08月01日 22:59