にんじゃりばんばん
きゃりーぱみゅぱみゅ

ADVANCED

Level: 5
BPM: 130
Notes: 425

1
口口口口 |----|
口口口口 |----|
口口口口 |----|
口口口口 |----|
2
口口口口 |①---|
口口口口 |----|
口②②口 |②---|
口①①口 |----|
3
口②②口 |①---|
口①①口 |----|
口口口口 |②---|
口口口口 |----|
4
口口口口 |①---|
口口口口 |----|
②口口② |②---|
①口口① |----|
5
②口口② |①---|
①口口① |----|
口口口口 |②---|
口口口口 |----|
6
口①①口 |①---|
口口口口 |----|
②口口② |②---|
口口口口 |----|
7
②口口② |①---|
①口口① |----|
口口口口 |②---|
口口口口 |----|
8
口口口口 |①---|
口口口口 |----|
口①①口 |----|
口口口口 |----|
9
口②口口 |①---|
口口③口 |--②-|
口④口口 |③-④-|
①⑥⑤① |⑤-⑥-|
10
⑤②③⑤ |①---|
①④④① |②-③-|
口④④口 |④---|
⑥口口⑥ |⑤-⑥-|
11
⑥口口⑥ |①---|
口④④口 |②-③-|
①④④① |④---|
⑤②③⑤ |⑤-⑥-|
12
④③③⑤ |①---|
①口口② |②---|
①口口② |③---|
口口口口 |④-⑤-|
13
口口口口 |①-②-|
口①②口 |③-④-|
③口口④ |⑤---|
口⑤口口 |----|
14
⑤②③⑤ |①---|
①④④① |②-③-|
口④④口 |④---|
⑥口口⑥ |⑤-⑥-|
15
⑥口口⑥ |①---|
口④④口 |②-③-|
①④④① |④---|
⑤②③⑤ |⑤-⑥-|
16
口口口口 |①---|
口口②口 |②---|
①②口①
口口口口

口口口口
口③口口
⑤口③口 |③---|
口口④口 |④-⑤-|
17
⑥口口⑦ |①-②-|
②口③① |③-④-|
口④口口 |⑤-⑥-|
口口口⑤ |⑦---|
18
⑤②③⑤ |①---|
①④④① |②-③-|
口④④口 |④---|
⑥口口⑥ |⑤-⑥-|
19
⑥口口⑥ |①---|
口④④口 |②-③-|
①④④① |④---|
⑤②③⑤ |⑤-⑥-|
20
④③③⑤ |①---|
①口口② |②---|
①口口② |③---|
口口口口 |④-⑤-|
21
口口口口 |①-②-|
口①②口 |③-④-|
③口口④ |⑤---|
口⑤口口 |----|
22
⑤②③⑤ |①---|
①④④① |②-③-|
口④④口 |④---|
⑥口口⑥ |⑤-⑥-|
23
⑥口口⑥ |①---|
口④④口 |②-③-|
①④④① |④---|
⑤②③⑤ |⑤-⑥-|
24
口口口口 |①---|
口口②口 |②---|
①②口①
口口口口

口口口口
口③口口
⑤口③口 |③---|
口口④口 |④-⑤-|
25
口口口① |①-②-|
②口③口 |③-④-|
口④口口 |⑤---|
口口口⑤ |----|
26
①口口② |①-②-|
口⑥⑥口 |③---|
口③③口 |④-⑤-|
④口口⑤ |⑥---|
27
口①②口 |①-②-|
⑥口口⑥ |③---|
③口口③ |④-⑤-|
口④⑤口 |⑥---|
28
①口口② |①-②-|
口⑥⑥口 |③---|
口③③口 |④-⑤-|
④口口⑤ |⑥---|
29
口①②口 |①-②-|
口口口口 |③---|
③④④③ |④---|
口口口口 |----|
30
①口口口 |①---|
口口④口 |----|
口③口口 |--②-|
口口②口 |③-④-|
31
口①口② |①---|
口口③口 |----|
口口口口 |----|
口口口口 |②-③-|
32
口口口口 |①---|
口②口口 |----|
口①③口 |----|
口口口口 |②-③-|
33
口口口口 |①---|
口口口口 |----|
口口口口 |②---|
②口口① |----|
34
口口口口 |①---|
口①①口 |----|
口③口口 |----|
口口②口 |②-③-|
35
②②③③ |①---|
口口口① |②---|
口④④口 |③---|
口口口口 |④---|
36
②口口② |①---|
口①①口 |--②-|
口口口口 |----|
口口口口 |----|
37
口口①① |----|
②②口口 |----|
口口口口 |①---|
口口口口 |②---|
38
口口口口 |①---|
口口口口 |----|
口③①① |----|
口口②口 |②-③-|
39
②口口口 |①---|
口③①口 |----|
口口④口 |--②-|
口口口口 |③-④-|
40
口口口口 |①---|
口口口口 |----|
口③口口 |----|
②口口① |②-③-|
41
口口口口 |①---|
②口①口 |②---|
口口口③ |③---|
口④口口 |④---|
42
②口口③ |①---|
口口口① |--②-|
口口口口 |③---|
口口口口 |----|
43
口口口口 |①---|
①口口① |----|
②口口② |②---|
口③口口 |--③-|
44
口口口口 |①---|
口口口口 |----|
口口口口 |----|
口口①口 |----|
45
口②口口 |①---|
口口③口 |--②-|
口④口口 |③-④-|
①⑥⑤① |⑤-⑥-|
46
⑤②③⑤ |①---|
①④④① |②-③-|
口④④口 |④---|
⑥口口⑥ |⑤-⑥-|
47
⑥口口⑥ |①---|
口④④口 |②-③-|
①④④① |④---|
⑤②③⑤ |⑤-⑥-|
48
④③③⑤ |①---|
①口口② |②---|
①口口② |③---|
口口口口 |④-⑤-|
49
口口口口 |①-②-|
口①②口 |③-④-|
③口口④ |⑤---|
口⑤口口 |----|
50
⑤②③⑤ |①---|
①④④① |②-③-|
口④④口 |④---|
⑥口口⑥ |⑤-⑥-|
51
⑥口口⑥ |①---|
口④④口 |②-③-|
①④④① |④---|
⑤②③⑤ |⑤-⑥-|
52
口口口口 |①---|
口口②口 |②---|
①②口①
口口口口

口口口口
口③口口
⑤口③口 |③---|
口口④口 |④-⑤-|
53
⑥口口⑦ |①-②-|
②口③① |③-④-|
口④口口 |⑤-⑥-|
口口口⑤ |⑦---|
54
⑤②③⑤ |①---|
①④④① |②-③-|
口④④口 |④---|
⑥口口⑥ |⑤-⑥-|
55
⑥口口⑥ |①---|
口④④口 |②-③-|
①④④① |④---|
⑤②③⑤ |⑤-⑥-|
56
④③③⑤ |①---|
①口口② |②---|
①口口② |③---|
口口口口 |④-⑤-|
57
口口口口 |①-②-|
口①②口 |③-④-|
③口口④ |⑤---|
口⑤口口 |----|
58
⑤②③⑤ |①---|
①④④① |②-③-|
口④④口 |④---|
⑥口口⑥ |⑤-⑥-|
59
⑥口口⑥ |①---|
口④④口 |②-③-|
①④④① |④---|
⑤②③⑤ |⑤-⑥-|
60
口口口口 |①---|
口口②口 |②---|
①②口①
口口口口

口口口口
口③口口
⑤口③口 |③---|
口口④口 |④-⑤-|
61
口口口① |①-②-|
②口③口 |③-④-|
口④口口 |⑤---|
口口口⑤ |----|

不確定度: 0

最終更新:2014年08月01日 22:59