LANA - セカイノハズレ -
TOMOSUKE×Jazzin'park

ADVANCED

Level: 6
BPM: 214
Notes: 307

1
口口口口 |------|
口口口口 |------|
口口口口 |------|
口口口口 |------|
2
口口口④ |①-----|
口口③口 |②-----|
口②口口 |③-----|
①口口口 |④-----|
3
①口②口 |①-----|
④口口③ |----②-|
口口口口 |----③-|
口口口口 |④-----|
4
④口口口 |①-----|
口③口口 |②-----|
口口②口 |③-----|
口口口① |④-----|
5
口②口① |①-----|
③口口④ |----②-|
口口口口 |----③-|
口口口口 |④-----|
6
口口口④ |①-----|
口口③口 |②-----|
口②口口 |③-----|
①口口口 |④-----|
7
①口②口 |①-----|
④口口③ |----②-|
口口口口 |----③-|
口口口口 |④-----|
8
④口口口 |①-----|
口③口口 |②-----|
口口②口 |③-----|
口口口① |④-----|
9
口②口① |①-----|
③口口④ |----②-|
口口口口 |----③-|
口口口口 |④-----|
10
口口口④ |①-----|
口口③口 |②-----|
口②口口 |③-----|
①口口口 |④-----|
11
①口②口 |①-----|
④口口③ |----②-|
口口口口 |----③-|
口口口口 |④-----|
12
口口口口 |①-----|
口②②口 |------|
口①①口 |②-----|
口口口口 |------|
13
口口口口 |①-----|
口口口口 |----②-|
②口口② |------|
口①①口 |------|
14
口口口口 |①-----|
口①口口 |②-----|
口口②口 |③-----|
③口口④ |④-----|
15
口③④口 |①-----|
口口②口 |②-----|
口①口口 |③-----|
口口口口 |④-----|
16
口口口④ |①-----|
③口口口 |②-----|
口口口② |③-----|
口①口口 |④-----|
17
①口口口 |①-----|
口③③口 |----②-|
口②②口 |------|
口口口口 |③-----|
18
①②口① |①-----|
②口口口 |------|
口口口口 |------|
口口口口 |②-----|
19
口口①口 |①-----|
口口口① |----②-|
口③③口 |------|
口②②口 |③-----|
20
口②②口 |①-----|
①口口① |------|
口口口口 |②-----|
口口口口 |------|
21
口口口口 |①-----|
口①①口 |------|
②口口口 |------|
口口口口 |②-----|
22
口口口口 |①-----|
口④口口 |②-----|
口口③口 |③-----|
口②①口 |④-----|
23
①口口① |①-----|
②口口② |------|
口口口口 |②-----|
口口口口 |------|
24
口口口口 |①-----|
口口口口 |------|
①口口① |------|
口口口口 |------|
25
口口口口 |------|
口口口口 |------|
口口口口 |------|
口口口口 |------|
26
口口口口 |①-----|
口①口口 |②-----|
口口②口 |③-----|
③口口④ |④-----|
27
口③④口 |①-----|
口口②口 |②-----|
口①口口 |③-----|
口口口口 |④-----|
28
口口口④ |①-----|
③口口口 |②-----|
口口口② |③-----|
口①口口 |④-----|
29
①口口口 |①-----|
口③③口 |----②-|
口②②口 |------|
口口口口 |③-----|
30
①②口① |①-----|
②口口口 |------|
口口口口 |------|
口口口口 |②-----|
31
口口①口 |①-----|
口口口① |----②-|
口③③口 |------|
口②②口 |③-----|
32
口②②口 |①-----|
①口口① |------|
口口口口 |②-----|
口口口口 |------|
33
口口口口 |①-----|
口①①口 |------|
②口口口 |------|
口口口口 |②-----|
34
口口口口 |①-----|
口④口口 |②-----|
口口③口 |③-----|
口②①口 |④-----|
35
①口口① |①-----|
②口口② |------|
口口口口 |②-----|
口口口口 |------|
36
口口口口 |①-----|
口口口口 |------|
①口口① |------|
口口口口 |------|
37
口口口口 |------|
口口口口 |------|
口口口口 |------|
口口口口 |------|
38
④口①口 |------|
口口③口 |①-----|
口口口口 |②---③-|
口②口口 |----④-|
39
口口口口 |------|
②口口① |①-----|
口口口口 |②-----|
口口③口 |③-----|
40
口口口口 |①-----|
②口口口 |------|
口①口口 |------|
口口口口 |②-----|
41
口口口口 |①-----|
口口口口 |------|
口口口① |------|
口口口口 |------|
42
④口口① |------|
口口③口 |①-----|
口②口口 |②---③-|
口口口口 |----④-|
43
口口口口 |------|
口口口① |①-----|
②口口口 |②-----|
口口口③ |③-----|
44
口口②口 |①-----|
口③口口 |②---③-|
口①口④ |----④-|
⑤口口口 |----⑤-|
45
口①口口 |------|
口口口口 |------|
口口口口 |------|
口口口口 |①-----|
46
口口①口 |①-----|
口口口口 |------|
②口口口 |------|
口口口口 |②-----|
47
口口口③ |①-----|
口②口口 |----②-|
口口口① |------|
口口口口 |③-----|
48
①口口口 |①-----|
口口口口 |------|
口口②口 |------|
口口口口 |②-----|
49
口口口口 |①-----|
口口口口 |------|
口①口口 |------|
②口口口 |②-----|
50
口口口口 |①-----|
口口口口 |------|
口口口口 |------|
口口口① |------|
51
①口口口 |①-----|
口口②口 |②-----|
口③口口 |③-----|
口口口④ |④-----|
52
口口口口 |①-----|
①口口① |------|
②口口② |②-----|
口口口口 |------|
53
口口口口 |①-----|
口口口口 |------|
口口口口 |------|
①口口① |------|
54
口口口口 |------|
口口口口 |------|
口口口口 |------|
口口口口 |------|
55
④口口② |①-----|
口口口口 |②-----|
口③③口 |③-----|
口①①口 |④-----|
56
口④②口 |①-----|
③①①③ |②-----|
口口口口 |③-----|
口口口口 |④-----|
57
④口口② |①-----|
口口口口 |②-----|
③口口③ |③-----|
①口口① |④-----|
58
口④②口 |①-----|
①③③① |②-----|
口口口口 |③-----|
口口口口 |④-----|
59
口口口① |①-----|
②口口口 |②-----|
口口口③ |③-----|
④口口口 |④-----|
60
口口口口 |①-----|
口②②口 |------|
口①①口 |②-----|
口口口口 |------|
61
①口口① |①-----|
口口口口 |------|
口口口口 |------|
口口口口 |------|
62
①口口口 |------|
口口口口 |------|
口口口口 |------|
口口口口 |①-----|
63
口④口① |①-----|
②口口③ |②-----|
口口口口 |③-----|
口口口口 |④-----|
64
口口①口 |①-----|
口②③口 |②-----|
④口口口 |③-----|
口口口口 |④-----|
65
口口口口 |①-----|
口口口口 |②-----|
口口口① |③-----|
②④口③ |④-----|
66
口口口口 |①-----|
口口口口 |------|
口②②口 |②-----|
口口①口 |------|
67
口口口口 |①-----|
口①①口 |------|
口口口口 |------|
口口口口 |------|
68
①口口① |①-----|
口口口口 |------|
口口口口 |------|
口口口口 |------|
69
口口口口 |①-----|
①口口① |------|
口口口口 |------|
口口口口 |------|
70
口口口口 |------|
口口口口 |------|
口口口口 |------|
口口口口 |------|
71
④口口② |①-----|
口口口口 |②-----|
口③③口 |③-----|
口①①口 |④-----|
72
口④②口 |①-----|
③①①③ |②-----|
口口口口 |③-----|
口口口口 |④-----|
73
④口口② |①-----|
口口口口 |②-----|
③口口③ |③-----|
①口口① |④-----|
74
口④②口 |①-----|
①③③① |②-----|
口口口口 |③-----|
口口口口 |④-----|
75
口口口① |①-----|
②口口口 |②-----|
口口口③ |③-----|
④口口口 |④-----|
76
口口口口 |①-----|
口②②口 |------|
口①①口 |②-----|
口口口口 |------|
77
①口口① |①-----|
口口口口 |------|
口口口口 |------|
口口口口 |------|
78
口口口口 |------|
口口口口 |------|
口①口口 |------|
口口口口 |①-----|
79
口④口口 |①-----|
②口口③ |②-----|
口口①口 |③-----|
口口口口 |④-----|
80
口口①口 |①-----|
口②③口 |②-----|
④口口口 |③-----|
口口口口 |④-----|
81
口口口口 |①-----|
口口口口 |②-----|
口口口① |③-----|
②④口③ |④-----|
82
口口口口 |①-----|
口④口口 |②-----|
口②③口 |③-----|
口口①口 |④-----|
83
口口口口 |①-----|
口口①口 |------|
口口口口 |------|
口口口口 |------|
84
口口口口 |------|
口口口口 |------|
口口口口 |------|
口口口口 |------|
85
口口口口 |------|
口③②① |①-----|
口③②① |②-----|
口口口口 |③-----|
86
②口口② |①-----|
①口口口 |------|
①口口口 |②-----|
口口口口 |------|
87
口口口口 |①-----|
口口口口 |------|
口口口口 |------|
①口口① |------|
88
口口口口 |------|
口口口口 |------|
口口口口 |------|
口口口口 |------|
89
口口口口 |①-----|
口①①口 |------|
口口口口 |------|
口口口口 |------|
90
口口口口 |------|
口口口口 |------|
口口口口 |------|
口口口口 |------|
91
口口口口 |①-----|
口口口口 |------|
口①①口 |------|
口口口口 |------|
92
口口口口 |①-----|
①口口① |------|
口口口口 |------|
口口口口 |------|
93
口口口口 |------|
口口口口 |------|
口口口口 |------|
口口口口 |------|
94
①口口① |----①-|
口口口口 |------|
口口口口 |------|
口口口口 |------|

不確定度: 0

最終更新:2014年08月01日 22:50