LANA - ココロノキオク -
TOMOSUKE×Jazzin'park

BASIC

Level: 1
BPM: 84
Notes: 117

1
口口口口 |----|
口口口口 |----|
口口口口 |----|
口口口口 |----|
2
口①口口 |①---|
口口口口 |----|
口口口口 |----|
口口口口 |----|
3
口口①口 |①---|
口口口口 |----|
口口口口 |----|
口口口口 |----|
4
口口口口 |①---|
口①①口 |----|
口口②口 |②---|
口口口口 |----|
5
口口口口 |①---|
口口口口 |----|
②①口口 |②---|
口口口口 |----|
6
口口口口 |①---|
口①①口 |----|
口②口口 |②---|
口口口口 |----|
7
口口口口 |①---|
口口口口 |----|
口口①② |②---|
口口口口 |----|
8
口口口口 |①---|
口③②口 |----|
口①①口 |②---|
口口口口 |③---|
9
口口口口 |①---|
口②③口 |----|
口①①口 |②---|
口口口口 |③---|
10
口口口口 |①---|
口口口口 |----|
口①①口 |----|
口口口口 |----|
11
口口口口 |①---|
口①①口 |----|
口②②口 |②---|
口口口口 |----|
12
口口口口 |①---|
口口④② |②---|
口口③① |③---|
口口口口 |④---|
13
口口口口 |①---|
④②口口 |②---|
③①口口 |③---|
口口口口 |④---|
14
口口口口 |①---|
口口④② |②---|
口口③① |③---|
口口口口 |④---|
15
口口口口 |①---|
④②口口 |②---|
③①口口 |③---|
口口口口 |④---|
16
口口口口 |①---|
口口口口 |----|
口①①口 |----|
口口口口 |----|
17
口口口口 |①---|
口①①口 |----|
口③②口 |②---|
口口口口 |③---|
18
口口口口 |①---|
口①①口 |----|
口②③口 |②---|
口口口口 |③---|
19
口口口口 |①---|
口①①口 |----|
口口口口 |----|
口口口口 |----|
20
口口口口 |①---|
口口口口 |----|
口①①口 |②---|
口②②口 |----|
21
口口口口 |----|
口①②口 |----|
口口口口 |①---|
口口口口 |②---|
22
口口口口 |①---|
口④③① |②---|
口②②口 |③---|
口口口口 |④---|
23
口口口口 |①---|
①口口口 |②---|
口②②口
口口口口

口口口口
③④口口
口口口口 |③---|
口口口口 |④---|
24
口口口口 |①---|
口口①② |②---|
口口④③ |③---|
口口口口 |④---|
25
口口口口 |①---|
口③④口 |②---|
②①口口 |③---|
口口口口 |④---|
26
口口口口 |①---|
口④③① |②---|
口②②口 |③---|
口口口口 |④---|
27
口口口口 |①---|
①口口口 |②---|
口②②口
口口口口

口口口口
③口口③
口口口口 |③---|
口口口口 |----|
28
口口口口 |----|
口口口口 |----|
口口口口 |----|
口口口口 |----|
29
口口口口 |①---|
口③③口 |②---|
口②①口 |③---|
口口口口 |----|
30
口口口口 |----|
口口口口 |----|
口①①口 |①---|
口口口口 |----|
31
口口口口 |----|
口①①口 |----|
口口口口 |①---|
口口口口 |----|
32
口口口口 |----|
口口口口 |----|
口①②口 |①---|
口口口口 |②---|
33
口口口口 |①---|
口①①③ |----|
口②②口 |②---|
口口口口 |③---|
34
口口口口 |①---|
③②①口 |②---|
④口口口 |③---|
口口口口 |④---|
35
口口口口 |①---|
口口口口 |②---|
口①②口 |----|
口口口口 |----|
36
口口口口 |①---|
口口口口 |----|
口②①口 |②---|
口口口口 |----|
37
口口口口 |①---|
口②①口 |----|
口口口口 |②---|
口口口口 |----|
38
口口口口 |①---|
口口口口 |----|
口②①口 |②---|
口口口口 |----|
39
口口口口 |①---|
口口口口 |----|
口口口口 |----|
口①①口 |----|

不確定度: 0

最終更新:2014年08月01日 22:49