LANA - ココロノキオク -
TOMOSUKE×Jazzin'park

ADVANCED

Level: 4
BPM: 84
Notes: 229

1
口口口口 |----|
口口口口 |----|
口口口口 |----|
口口口口 |----|
2
口②①口 |①-②-|
口④③口 |③-④-|
口口口口 |----|
口口口口 |----|
3
口口口口 |①-②-|
口口口口 |③-④-|
口④③口 |----|
口②①口 |----|
4
口口口口 |①---|
口①①口 |--②-|
口口口②
口口口口

口口口口
口④口⑥
口口⑤口 |③-④⑤|
口口口口 |--⑥-|
5
口口口口 |①-②③|
①口②口 |-④⑤-|
口③④口 |----|
口⑤口口 |----|
6
口口口口 |----|
②口③口 |--①-|
①④口口 |②-③④|
口口口口 |----|
7
口①口口 |①-②-|
口口②口 |③-④-|
口③口口 |----|
口口④口 |----|
8
口④口口 |----①-|
口③口口 |②-③-④-|
口②口口
口①口口

口口口⑤
口口口口
口⑥口口 |⑤-⑥⑦|
口口⑦口 |----|
9
口口口口 |----|
口口③口 |①-②-③-|
口口②口
口口①口

⑤口④口
口⑥口口
口口⑦口 |④-⑤-|
口口口口 |⑥-⑦-|
10
口口口口 |①---|
口②②口 |--②-|
口口口口
口口口①

口口口口
口口③口
口口口口 |----|
口口口口 |---③|
11
③口口② |①---|
口口口口 |--②-|
口①口口 |③---|
口口口口 |----|
12
口口口口 |---①|
口口④口 |②-③④|
口③②口
口①口口

口⑦⑥口
口⑤口口
口口⑧口 |--⑤⑥|
口口口口 |--⑦⑧|
13
口口口口 |----|
口①口口 |①-②③|
口③口口
口口②口

口⑦口口
口⑤⑥口
口口④口 |--④⑤|
口口口口 |--⑥⑦|
14
口口口口 |----|
口口①口 |①-②③|
口口③口
口②口口

口口口口
口口⑤口
口④口口 |--④⑤|
口口口口 |----|
15
口①口口 |----|
口口口② |①-②-|
口③⑥口 |③-④-|
⑤口口④ |⑤-⑥-|
16
口③③口 |①---|
①口①口 |--②-|
口②②口 |③---|
口口口口 |----|
17
④口口⑤ |----|
口口③口 |--①-|
②口口口 |②-③-|
口口①口 |④-⑤-|
18
口口口口 |①---|
②①口① |--②-|
口口口口
口口口口

口口口口
口③口口
⑥口④⑤ |③-④-|
口口口口 |⑤-⑥-|
19
口口口口 |①-②③|
口③口口 |----|
口①②口
口口口口

口口口口
口口口口
口④④口 |----|
口口口口 |--④-|
20
②口口② |①---|
③①①③ |--②-|
口口口口 |③---|
口口口口 |----|
21
口口口口 |----|
②③⑤④ |--①-|
②③⑤④ |②-③-|
口口①口 |④-⑤-|
22
口①①口 |①-②③|
口口口口 |--④-|
口②口口
口④③口

口口口口
⑦⑧⑥⑤
⑦⑧⑥⑤ |⑤-⑥-|
口口口口 |⑦-⑧-|
23
口①①口 |①-②③|
口口口口 |--④-|
口口②口
口③④口

口口口口
⑦⑤⑤⑦
⑧⑥⑥⑧ |⑤-⑥-|
口口口口 |⑦-⑧-|
24
口口①口 |--①-|
口②口口 |②-③-|
口口③口
口口口口

口口口口
④口口⑥
口⑤⑦口 |④-⑤-|
口口口口 |⑥-⑦-|
25
口口口口 |①-②-|
口①①口 |--③-|
口口口口
②口③②

口口口口
④⑤⑦⑥
④⑤⑦⑥ |④-⑤-|
口口口口 |⑥-⑦-|
26
口①①口 |①-②③|
口口口口 |--④-|
口②口口
口④③口

口口⑨口
⑦⑧⑥⑤
⑦口⑥⑤ |⑤-⑥-|
口口口口 |⑦-⑧⑨|
27
口口口口 |--①-|
③口④② |②-③-④-|
口①口口
口口口口

口口口口
口⑤⑥口
口⑦口口 |⑤---|
口口口口 |--⑥⑦|
28
口口口口 |----|
口口口口 |----|
口口口口 |----|
口①口口 |--①-|
29
口口⑤口 |①-②③|
口④③口 |-④⑤-|
口②口口 |----|
口口①口 |----|
30
④口口口 |----|
口③②① |--①-|
口口口口 |②-③-|
口口口口 |--④-|
31
口口口口 |----|
口②口口 |①-②-|
口口①口 |----|
口口口口 |----|
32
⑤口口⑤ |----|
①②③④ |--①-|
口口口口 |②-③-|
口口口口 |④-⑤-|
33
口口口口 |--①-|
口①①口 |--②-|
口④口口 |----|
②③口② |③-④-|
34
口②③④ |①-②-|
⑤①口⑥ |③-④-|
口口口口 |--⑤-|
口口口口 |--⑥-|
35
口口口口 |----|
口口口口 |----|
口口口口 |----|
口口口口 |----|
36
口口口口 |①---|
口①①口 |----|
口口口口
口口口口

口口口口
口③口⑤
②口④口 |②-③-|
口口口口 |④-⑤-|
37
口口口口 |--①-|
口①口口 |②-③-|
口口②口
口③口口

口口④口
口⑤口口
口口口口 |----|
口口口口 |--④⑤|
38
口口口口 |①---|
口口口口 |----|
口口①口
口口口口

口口口口
④③③④
⑤②②⑤ |②-③-|
口口口口 |④-⑤-|

不確定度: 0

最終更新:2014年08月01日 22:49