LANA - Answer II -
TOMOSUKE×Jazzin'park

ADVANCED

Level: 5
BPM: 165
Notes: 384

1
口口口口 |----|
口口口口 |----|
口口口口 |----|
口口口口 |----|
2
口⑦口口 |①-②-|
①②③口 |③-④-|
口④⑤⑥ |⑤-⑥-|
口口口口 |⑦---|
3
口口口口 |①-②-|
口②③④ |③-④-|
⑤⑥⑦⑧ |⑤-⑥-|
口口①口 |⑦-⑧-|
4
口⑦口口 |①-②-|
①②③口 |③-④-|
口④⑤⑥ |⑤-⑥-|
口口口口 |⑦---|
5
口口⑦⑧ |①-②-|
⑤⑥①口 |③-④-|
口②③口 |⑤-⑥-|
口④口口 |⑦-⑧-|
6
①①口口 |----|
口口口口 |①---|
②②口口 |②---|
③③口口 |③---|
7
口口①① |----|
口口口口 |①---|
口口②② |②---|
口口③③ |③---|
8
①①口口 |----|
口口口口 |①---|
②②口口 |②---|
③③口口 |③---|
9
口②口④ |----|
①口口口 |--①-|
口口③口 |②--③|
口口口口 |--④-|
10
口⑦口口 |①-②-|
口口②③ |③-④-|
口④⑤⑥ |⑤-⑥-|
①①口口 |⑦---|
11
口口⑧⑧ |①-②-|
口②③④ |③-④-|
⑤⑥⑦口 |⑤-⑥-|
口口①口 |⑦-⑧-|
12
口⑦口口 |①-②-|
口①②③ |③-④-|
口④⑤⑥ |⑤-⑥-|
口口口口 |⑦---|
13
口口⑦⑧ |①-②-|
⑤⑥①口 |③-④-|
口②③口 |⑤-⑥-|
口④口口 |⑦-⑧-|
14
①①口口 |----|
口口口口 |①-②-|
③③口口 |--③-|
②②口口 |----|
15
口口①① |---①|
口口口口 |--②-|
口口③③ |--③-|
口口②② |----|
16
①①口口 |----|
口口口口 |①-②-|
③③口口 |--③-|
②②口口 |----|
17
口口①口 |----|
口②口口 |----|
①③口口 |①-②-|
口口③② |--③-|
18
②口口② |①---|
口口口口 |----|
口口口① |----|
①口口口 |②---|
19
口口口口 |①---|
口②口④ |②---|
①口③口 |③---|
①口口口 |④---|
20
①②口④ |①---|
①口③口 |②---|
口口口口 |③---|
口口口口 |④---|
21
口口口口 |①---|
口口口口 |②-③-|
①③口口 |--④-|
①②口④ |----|
22
口②②口 |----|
①③③① |①---|
口口口口 |②---|
口口口口 |③---|
23
口口口口 |①-②-|
口口口口 |③-④-|
口②口④
①口③口

口口口口
口口⑤⑤
口口口口 |⑤---|
⑥⑥口口 |⑥---|
24
口②②口 |----|
①③③① |①---|
口口口口 |②---|
口口口口 |③---|
25
口口口口 |①--②|
口口口口 |--③-|
①③④口 |④--⑤|
口⑤②⑥ |--⑥-|
26
①①口口 |①---|
口口口口 |----|
口口口口 |----|
口口口口 |----|
27
口口口口 |----|
口口口口 |----|
口口口口 |----|
口口口口 |----|
28
口口口口 |----|
口口口口 |----|
口口口口 |----|
①①口口 |①---|
29
口口①① |①---|
口②②口 |--②-|
口②②口 |----|
口口口口 |----|
30
口口口口 |----|
口口口口 |①---|
口②②口 |②---|
①③③① |③---|
31
口口②口 |①---|
口①口③ |②---|
口口④口 |③---|
口口口口 |④---|
32
口口口口 |①---|
口①口口 |②---|
口③③口 |③---|
②④④② |④---|
33
口②口口 |①---|
①口③口 |②---|
口④口口 |③---|
口口口口 |④---|
34
口口①① |①---|
口口口口 |----|
口口口口 |----|
口口口口 |----|
35
口口口口 |----|
口口口口 |----|
口口口口 |----|
口口口口 |----|
36
口口口口 |①---|
口口口口 |----|
口①①口 |----|
②②口口 |②---|
37
口口①① |①---|
口②②口 |--②-|
口②②口 |----|
口口口口 |----|
38
口口口口 |①---|
口口口口 |----|
口口口口
口①①口

②口口口
②口口口
口口④④ |②---|
口口③③ |③-④-|
39
口口口④ |----|
②②口④ |--①-|
口口口口 |②---|
①①③③ |③-④-|
40
口口口口 |----|
①口口口 |----|
口口口口 |----|
口口口口 |①---|
41
口口①口 |①--②|
口口口口 |--③-|
④口口② |----|
④③口口 |④---|
42
口口①① |①---|
口口口口 |----|
口口口口 |----|
口口②口 |②---|
43
口口②① |①--②|
口①口口 |--③-|
口口③口 |----|
口口口口 |----|
44
①②口口 |①--②|
口口①口 |--③-|
口③口④ |----|
口口口口 |④---|
45
口口口口 |①--②|
①②口口 |--③-|
口口①口 |----|
口③口口 |----|
46
口口口口 |①---|
口②口① |--②-|
口口口口 |----|
③口口口 |--③-|
47
口②口口 |①--②|
口④口口 |--③-|
③①口口 |④---|
口口口口 |----|
48
口口口口 |----|
口口口口 |----|
口口口口 |----|
口口①口 |①---|
49
口口口① |①---|
口口口口 |----|
口口口② |②---|
口口口口 |----|
50
口口口口 |----|
①口口① |----|
口口口口 |①---|
口口口口 |----|
51
口口口口 |①---|
口口口口 |----|
①口口① |②---|
②口口② |----|
52
口口口口 |①---|
口口①口 |②---|
口②口口 |③---|
口口③口 |----|
53
⑤⑥⑦口 |①-②-|
①②④③ |③-④-|
口口口口 |--⑤-|
口口口口 |⑥-⑦-|
54
口③口口 |①---|
口口口口 |--②-|
①①口口 |----|
口口②② |③---|
55
①口①口 |①-②-|
⑤④②④ |--③-|
口口口口 |④--⑤|
⑥口③口 |--⑥-|
56
①口口① |①---|
口口口口 |----|
口口口口 |----|
②口口② |②---|
57
⑤⑥⑧⑦ |①-②-|
口②④③ |③-④-|
①口口① |⑤-⑥-|
口口口口 |⑦-⑧-|
58
口口口口 |①---|
口口口口 |----|
口口口口 |----|
口①①口 |----|
59
口口口口 |----|
口口口口 |----|
口口口口 |①---|
①①口口 |----|
60
②口口① |①--②|
口①口① |--③-|
④口④口 |④---|
④口口③ |----|
61
口口口口 |----|
口①②口 |----|
口②①口 |----|
口口口口 |①-②-|
62
④口②④ |①--②|
①口口口 |--③-|
口口口① |④---|
口③口口 |----|
63
口口口口 |----|
口口口口 |----|
口口口口 |----|
口口①① |①---|
64
①口口② |①--②|
①口①口 |--③-|
口④口④ |④---|
③口口④ |----|
65
口口口口 |----|
口②①口 |----|
口①②口 |----|
口口口口 |①-②-|
66
②口①口 |①---|
口口口② |--②-|
③口口口 |----|
口①口③ |③---|
67
口口口口 |----|
口口口口 |----|
口口口口 |----|
①①口口 |①---|
68
④口④① |①--②|
④①口① |--③-|
口口②口 |④---|
口口口③ |----|
69
口③口② |----|
口口①口 |----|
口①口③ |--①-|
②口口口 |②-③-|
70
口口口口 |----|
口②口④ |①---|
①口③口 |--②-|
口①口口 |③-④-|
71
口②口口 |①-②-|
①④③口 |③---|
口口口口 |--④-|
口⑤口口 |⑤---|
72
口口口口 |①-②-|
口④①口 |③---|
⑥③⑥③ |④-⑤-|
口⑤②口 |⑥---|
73
④①④口 |①-②-|
③口③口 |③-④-|
口②⑤口 |--⑤-|
口⑥口口 |⑥---|
74
口①口① |①---|
口口口口 |②---|
口口口口 |----|
②口②口 |----|
75
口①口口 |①-②-|
口口②② |③-④-|
口③口口 |----|
口口④④ |----|
76
口口口口 |①---|
①①①① |----|
口口口口 |----|
口口口口 |----|

不確定度: 0

最終更新:2014年08月01日 22:46