虚空と光明のディスクール
日向美ビタースイーツ♪

BASIC

Level: 3
BPM: 140
Notes: 197

1
口口口口 |----|
口口口口 |----|
口口口口 |----|
口口口口 |----|
2
口口口口 |①---|
口①②口 |----|
口口口口 |②---|
口口口口 |----|
3
口口口口 |①---|
口口口口 |----|
口②①口 |②---|
口口口口 |----|
4
口口口口 |①---|
口①②口 |----|
口口口口 |②---|
口口口口 |----|
5
口口口口 |①---|
口口口口 |----|
口②①口 |②---|
口口口口 |----|
6
口口口口 |①---|
口①②口 |----|
口口口口 |②---|
口口口口 |----|
7
口口口口 |①---|
口口口口 |----|
口②①口 |②---|
口口口口 |----|
8
口口口口 |①---|
口①②口 |----|
口口口口 |②---|
口口口口 |----|
9
口口口口 |①---|
口口口口 |----|
口②①口 |②---|
口口口口 |----|
10
口口口口 |①---|
口①①口 |----|
口口口口 |----|
口口口口 |----|
11
口口口口 |----|
口口口口 |----|
①口口口 |①---|
口口口口 |----|
12
口口口口 |①---|
①口口口 |----|
口口口口 |----|
口口口口 |----|
13
口口口口 |①---|
口①口口 |----|
口②口口 |②---|
口口口口 |----|
14
口口口口 |①---|
口口口口 |----|
口口口口 |----|
口①口口 |----|
15
口口口口 |①---|
口口①口 |----|
口口②口 |②---|
口口口口 |----|
16
口口口口 |①---|
口口口口 |----|
口口口口 |----|
口口①口 |----|
17
口口口口 |----|
口口口口 |----|
口口口① |①---|
口口口口 |----|
18
口口口口 |①---|
口口口① |----|
口口口口 |----|
口口口口 |----|
19
口口口口 |----|
口口口口 |----|
口①口口 |①---|
口口口口 |----|
20
口口口口 |①---|
口口②口 |----|
口口①口 |②---|
口口口口 |----|
21
口口口口 |①---|
口①口口 |----|
②口口② |②---|
口口口口 |----|
22
口口口口 |①---|
口口口口 |----|
口①②口 |②---|
口口口口 |----|
23
口口口口 |①---|
口口①口 |----|
②口口② |②---|
口口口口 |----|
24
口口口口 |①---|
①②口口 |----|
口口口口 |②---|
口口口口 |----|
25
口口口口 |①---|
口口①口 |----|
②口口② |②---|
口口口口 |----|
26
口口口口 |①---|
口口①口 |----|
口口②口 |②---|
口口口口 |----|
27
口口口口 |①---|
口口口口 |----|
②①口② |②---|
口口口口 |----|
28
口口口口 |①---|
口①①口 |----|
口口口口 |----|
口口口口 |----|
29
口口口口 |①---|
①②口① |②---|
③口④③ |③---|
口口口口 |④---|
30
口口口口 |①---|
口口④口 |②---|
口②口口 |③---|
①③③① |④---|
31
口口口口 |①---|
口口口口 |----|
口①①口 |----|
口口口口 |----|
32
口①口口 |①---|
口口②口 |②---|
口③口口 |③---|
口口④口 |④---|
33
口口口口 |①---|
①②口① |②---|
③口④③ |③---|
口口口口 |④---|
34
口口口口 |①---|
口口④口 |②---|
口②口口 |③---|
①③③① |④---|
35
口口口口 |①---|
口口口口 |----|
口①①口 |----|
口口口口 |----|
36
口①口口 |①---|
口口②口 |②---|
口③口口 |③---|
口口④口 |④---|
37
口口口口 |①---|
①②口① |②---|
③口④③ |③---|
口口口口 |④---|
38
口口口口 |①---|
口口④口 |②---|
口②口口 |③---|
①③③① |④---|
39
口口口口 |①---|
口口口口 |----|
口①①口 |----|
口口口口 |----|
40
口口②口 |①---|
口①口口 |②---|
口③口口 |③---|
口口④口 |④---|
41
口口口口 |①---|
③④口③ |②---|
①口②① |③---|
口口口口 |④---|
42
①口口① |①---|
口口口口 |----|
口口口口 |----|
口口口口 |----|
43
口口口口 |①---|
②①①口 |②---|
口③③④ |③---|
口口口口 |④---|
44
口口口口 |①---|
口口口口 |----|
口口口口 |----|
口①①口 |----|
45
口口口口 |①---|
口①①口 |----|
口①①口 |----|
口口口口 |----|
46
口口口口 |----|
口口口口 |----|
口口口口 |----|
口口口口 |----|
47
口口口口 |①---|
①口口① |----|
①口口① |----|
口口口口 |----|
48
口口口口 |----|
口口口口 |----|
口口口口 |----|
口口口口 |----|
49
口口口口 |①---|
口①①口 |----|
口①①口 |----|
口口口口 |----|
50
口口口口 |----|
口口口口 |----|
口口口口 |----|
口口口口 |----|
51
口口口口 |①---|
①口口① |----|
①口口① |----|
口口口口 |----|
52
口口口口 |----|
口口口口 |----|
口口口口 |----|
口口口口 |----|
53
口口口口 |①---|
口①①口 |----|
口①①口 |----|
口口口口 |----|
54
口口口口 |①---|
口①①口 |----|
口②②口 |②---|
口口口口 |----|
55
口口口口 |①---|
口口口口 |----|
口口口口 |----|
口①①口 |----|
56
口口口口 |①---|
口口口口 |----|
口②②口 |②---|
口①①口 |----|
57
口口口口 |①---|
口①①口 |----|
口口口口 |----|
口口口口 |----|
58
口①①口 |①---|
口②②口 |----|
口口口口 |②---|
口口口口 |----|
59
口口口口 |①---|
口口口口 |----|
口①①口 |----|
口口口口 |----|
60
口口口口 |①---|
口①①口 |----|
口②②口 |②---|
口口口口 |----|
61
口口口口 |①---|
①口②口 |②---|
③口④口 |③---|
口口口口 |④---|
62
口口口口 |①---|
口①口② |②---|
口③口④ |③---|
口口口口 |④---|
63
口口口口 |①---|
①口②口 |②---|
口③口④ |③---|
口口口口 |④---|
64
口口口口 |①---|
①口②口 |②---|
口③口④ |③---|
口口口口 |④---|
65
口口口口 |①---|
①③口口 |②---|
口口口口 |③---|
②④口口 |④---|
66
口口口口 |①---|
口口①③ |②---|
口口口口 |③---|
口口②④ |④---|
67
口口③① |①---|
口口口口 |②---|
口口④② |③---|
口口口口 |④---|
68
③①口口 |①---|
口口口口 |②---|
④②口口 |③---|
口口口口 |④---|
69
口口口口 |①---|
口①①口 |----|
口口口口 |----|
口口口口 |----|


不確定度: 0

最終更新:2013年12月15日 00:55