この青空の下で
TAG meets "eimy"

BASIC

Level: 5
BPM: 165
Notes: 296

1
口口口口 |----|
口口口口 |----|
口口口口 |----|
口口口口 |----|
2
口口口口 |①---|
口口口口 |----|
口①①口 |----|
口口口口 |----|
3
口口口口 |①---|
口口口口 |----|
口口口口 |----|
口①①口 |----|
4
口口口口 |①---|
口口口口 |----|
口①①口 |----|
口口口口 |----|
5
口口口口 |①---|
口①①口 |----|
口口口口 |----|
口口口口 |----|
6
②④口口 |①---|
口口口口 |②---|
①③口口 |③---|
口口口口 |④---|
7
口口④② |①---|
口口口口 |②---|
口口③① |③---|
口口口口 |④---|
8
②④口口 |①---|
口口口口 |②---|
①③口口 |③---|
口口口口 |④---|
9
口口④② |①---|
口口口口 |②---|
口口③① |③---|
口口口口 |④---|
10
口口口口 |①---|
口口口口 |②---|
口口口口 |③---|
①②③④ |④---|
11
口口口口 |①---|
口口口口 |②---|
①②③④ |③---|
口口口口 |④---|
12
口口口口 |①---|
口口口口 |②---|
口口口口 |③---|
④③②① |④---|
13
口口口口 |①---|
口口口口 |②---|
④③②① |③---|
口口口口 |④---|
14
口口口口 |①---|
①②③④ |②---|
口口口口 |③---|
口口口口 |④---|
15
口口口口 |①---|
口口口口 |②---|
①②③④ |③---|
口口口口 |④---|
16
口口口口 |①---|
口口口口 |②---|
口口口口 |③---|
④③②① |④---|
17
口口口口 |①---|
口口口口 |②---|
①②③④ |③---|
口口口口 |④---|
18
口①口口 |①---|
口②口口 |②---|
口③口口 |③---|
口④口口 |④---|
19
口口①口 |①---|
口口②口 |②---|
口口③口 |③---|
口口④口 |④---|
20
①口口口 |①---|
②口口口 |②---|
③口口口 |③---|
④口口口 |④---|
21
口口口① |①---|
口口口② |②---|
口口口③ |③---|
口口口④ |④---|
22
口口口口 |①---|
④口口口 |②---|
②③口口 |③---|
口①口口 |④---|
23
口口口口 |①---|
口口口④ |②---|
口口③② |③---|
口口①口 |④---|
24
口①②口 |①---|
口③④口 |②---|
口口口口 |③---|
口口口口 |④---|
25
口口口口 |①---|
口口口口 |②---|
③口口④ |③---|
①口口② |④---|
26
口①①口 |①---|
口口口口 |----|
口口口口 |----|
口口口口 |----|
27
②口口④ |①---|
口口口口 |②---|
①口口③ |③---|
口口口口 |④---|
28
口①口口 |①---|
口口②口 |②---|
口③口口 |③---|
口口④口 |④---|
29
②口口④ |①---|
口口口口 |②---|
①口口③ |③---|
口口口口 |④---|
30
口①口口 |①---|
口口②口 |②---|
口③口口 |③---|
口口④口 |④---|
31
④口口口 |①---|
③口口口 |②---|
②口口口 |③---|
①口口口 |④---|
32
口口口④ |①---|
口口口③ |②---|
口口口② |③---|
口口口① |④---|
33
口①②口 |①---|
口③④口 |②---|
口口口口 |③---|
口口口口 |④---|
34
口口口口 |①---|
口口口口 |②---|
③口口④ |③---|
口①②口 |④---|
35
口③口④ |①---|
口②口口 |②---|
口①口口 |③---|
口口口口 |④---|
36
④口③口 |①---|
口口②口 |②---|
口口①口 |③---|
口口口口 |④---|
37
口口口口 |①---|
口④口口 |②---|
口③②口 |③---|
口口①口 |④---|
38
口口口口 |①---|
③口口④ |②---|
口口口口 |③---|
①口口② |④---|
39
口①口口 |①---|
口口②口 |②---|
口③口口 |③---|
口口④口 |④---|
40
④口口④ |①---|
③口口③ |②---|
②口口② |③---|
①口口① |④---|
41
口①①口 |①---|
口②②口 |②---|
口③③口 |③---|
口④④口 |④---|
42
②②②② |①---|
①口口① |----|
①口口① |②---|
口口口口 |----|
43
口口口口 |①---|
口③①口 |②---|
口④②口 |③---|
口口口口 |④---|
44
口口口口 |①---|
③口口① |②---|
④口口② |③---|
口口口口 |④---|
45
口口口口 |①---|
口口口口 |②---|
口②④口 |③---|
口①③口 |④---|
46
口口口口 |①---|
②口口④ |②---|
①口口③ |③---|
口口口口 |④---|
47
口口口口 |①---|
口口口④ |②---|
口口口口 |③---|
①②③口 |④---|
48
口口口口 |①---|
④口口口 |②---|
口口口口 |③---|
口③②① |④---|
49
口口①口 |①---|
口②口口 |②---|
口口③口 |③---|
口④口口 |④---|
50
口④口口 |①---|
口口③口 |②---|
口②口口 |③---|
口口①口 |④---|
51
①口口① |①---|
口口口口 |----|
口口口口 |----|
口口口口 |----|
52
口口口口 |①---|
口口口口 |----|
口①①口 |----|
口口口口 |----|
53
口口口口 |①---|
口口口口 |----|
口口口口 |----|
口①①口 |----|
54
口口口口 |①---|
①口口① |----|
口口口口 |----|
口口口口 |----|
55
口口口口 |①---|
口口口口 |----|
口口口口 |----|
①口口① |----|
56
口口口口 |①---|
口①口口 |----|
口口①口 |----|
口口口口 |----|
57
口口口口 |①---|
口口①口 |----|
口①口口 |----|
口口口口 |----|
58
口口口口 |①---|
口口口口 |----|
口口口口 |----|
①口口① |----|
59
口口④口 |①---|
口③口口 |②---|
口口②口 |③---|
口①口口 |④---|
60
口③口④ |①---|
口②口口 |②---|
口①口口 |③---|
口口口口 |④---|
61
④口③口 |①---|
口口②口 |②---|
口口①口 |③---|
口口口口 |④---|
62
口口口口 |①---|
口④口口 |②---|
口③②口 |③---|
口口①口 |④---|
63
口口口口 |①---|
③口口④ |②---|
口口口口 |③---|
①口口② |④---|
64
口①口口 |①---|
口口②口 |②---|
口③口口 |③---|
口口④口 |④---|
65
④口口④ |①---|
③口口③ |②---|
②口口② |③---|
①口口① |④---|
66
口①①口 |①---|
口②②口 |②---|
口③③口 |③---|
口④④口 |④---|
67
口口口口 |①---|
①口口① |----|
①口口① |②---|
②②②② |----|
68
②④口口 |①---|
口口口口 |②---|
①③口口 |③---|
口口口口 |④---|
69
口口④② |①---|
口口口口 |②---|
口口③① |③---|
口口口口 |④---|
70
②④口口 |①---|
口口口口 |②---|
①③口口 |③---|
口口口口 |④---|
71
口口④② |①---|
口口口口 |②---|
口口③① |③---|
口口口口 |④---|
72
②④口口 |①---|
口口口口 |②---|
口口口口 |③---|
①③口口 |④---|
73
口口④② |①---|
口口口口 |②---|
口口口口 |③---|
口口③① |④---|
74
②④口口 |①---|
口口口口 |②---|
口口口口 |③---|
①③口口 |④---|
75
口口④② |①---|
口口口口 |②---|
口口口口 |③---|
口口③① |④---|
76
口口口口 |①---|
口口口口 |----|
口①①口 |----|
口口口口 |----|


不確定度: 0

最終更新:2014年02月17日 17:51