この青空の下で
TAG meets "eimy"

ADVANCED

Level: 8
BPM: 165
Notes: 542

1
口口口口 |----|
口口口口 |----|
口口口口 |----|
口口口口 |----|
2
口口口口 |①-②-|
③口口③ |----|
口②②口 |--③-|
④①①④ |--④-|
3
⑥③口⑥ |--①-|
⑤口②⑤ |②-③-|
④①口④ |--④-|
口口口口 |⑤-⑥-|
4
口口口口 |①-②-|
③口口③ |----|
口②②口 |--③-|
④①①④ |--④-|
5
口②②口 |--①-|
口①①口 |②-③-|
③口口③
口口口口

口口口口
口口⑥口
口⑤口口 |--④-|
口口④口 |⑤-⑥-|
6
⑦口口② |①-②-|
⑤口口④ |③-④-|
③口口⑥ |⑤-⑥-|
①口口⑧ |⑦-⑧-|
7
口⑦②口 |①-②-|
口⑤④口 |③-④-|
口③⑥口 |⑤-⑥-|
口①⑧口 |⑦-⑧-|
8
⑦口口② |①-②-|
⑤口口④ |③-④-|
③口口⑥ |⑤-⑥-|
①①口⑧ |⑦-⑧-|
9
⑤①①⑤ |①---|
②口口② |--②-|
④②②④ |--③-|
③口口③ |④-⑤-|
10
口⑥⑥口 |--①-|
①口口④ |②-③-|
⑤②③口 |④-⑤-|
口口口口 |--⑥-|
11
口口口口 |--①-|
口③⑥口 |②-③-|
⑤口②口 |--④-|
④①口口 |⑤-⑥-|
12
口口①① |①---|
口③口口 |②-③-|
口口口② |--④-|
口④⑤口 |⑤---|
13
口口口口 |----|
口口口口 |----|
口口口口 |----|
口口口口 |----|
14
口⑥⑥口 |--①-|
①口口④ |②-③-|
⑤②③口 |④-⑤-|
口口口口 |--⑥-|
15
口口口口 |--①-|
口③口⑥ |②-③-|
⑤口②口 |--④-|
④①口口 |⑤-⑥-|
16
口口③③ |①---|
①④口口 |②-③-|
口①⑤口 |--④-|
口⑥②口 |⑤-⑥-|
17
口口口口 |----|
口①②口 |----|
口②①口 |①---|
口口口口 |②---|
18
①口口① |①---|
口口口口 |②-③-|
口④③口 |④-⑤-|
②⑥⑥⑤ |--⑥-|
19
口口口口 |--①-|
口①②口 |②---|
口口口口 |----|
口口口口 |----|
20
口③⑤口 |----|
口⑤③口 |①-②-|
口①②口 |③---|
口④口口 |④-⑤-|
21
③④口③ |--①-|
口口⑤口 |②-③-|
口⑥口② |--④-|
①口口口 |⑤-⑥-|
22
口⑤⑤口 |①---|
④口口口 |----|
口口口③ |②-③-|
②口①口 |④-⑤-|
23
口口口口 |----|
口口口口 |①---|
③①②③ |②---|
口②①口 |③---|
24
①④④① |①---|
⑤③③⑤ |②-③-|
口口口口 |--④-|
口②口口 |--⑤-|
25
口口口口 |----|
口口口口 |①-②-|
口①②口 |----|
口②①口 |----|
26
口口口口 |----|
口口②口 |--①-|
⑤③口口 |②-③-|
口①④口 |④-⑤-|
27
①①①① |①--②|
口②③口 |--③-|
口⑤⑥口 |④--⑤|
④④④④ |--⑥-|
28
①口口① |①--②|
口②③口 |--③-|
④口⑥④ |④---|
口⑤口口 |⑤-⑥-|
29
①①①① |①--②|
口②③口 |--③-|
口⑤⑥口 |④--⑤|
④④④④ |--⑥-|
30
口②③口 |①--②|
①口口① |--③-|
④口口④ |④---|
口口口口 |----|
31
口④口口 |①--②|
①口③① |--③-|
口②口口 |④---|
口⑤口口 |⑤---|
32
①口口③ |①---|
口④口口 |②-③-|
口②②口 |--④-|
③口⑤① |--⑤-|
33
②②③③ |①---|
口口口口 |②-③-|
①口口① |----|
口口口口 |----|
34
口③④口 |----|
②口口⑤ |--①-|
口口①口 |②-③-|
口口口口 |④-⑤-|
35
口④⑥⑤ |①--②|
③口③口 |--③-|
②口②口 |--④-|
①口①口 |⑤-⑥-|
36
口口口口 |①--②|
⑥③口③ |--③-|
口②⑤② |--④-|
④①口① |⑤-⑥-|
37
④⑤⑥④ |①--②|
口口②口 |--③-|
口③口口 |④--⑤|
口①①口 |--⑥-|
38
④口口口 |①--②|
口②③口 |--③-|
口③②⑤ |----|
①口口① |④-⑤-|
39
口口①口 |①-②-|
口④口口 |--③-|
口口口口 |----|
②口口③ |--④-|
40
口④口④ |①---|
③口③口 |②---|
口②口② |③---|
①口①口 |④---|
41
口口口口 |①--②|
口①口口 |--③-|
②口①② |----|
口③③口 |----|
42
③口口④ |----|
口①②口 |--①-|
口②①口 |②-③-|
④口口③ |④---|
43
⑦口口⑧ |①-②-|
⑤口口⑥ |③-④-|
口③④口 |⑤-⑥-|
口①②口 |⑦-⑧-|
44
口③④口 |①-②-|
⑤口口⑥ |③-④-|
口①②口 |⑤-⑥-|
⑦口口⑧ |⑦-⑧-|
45
口口口口 |①-②-|
口口口口 |③-④-|
⑦③②⑥ |⑤-⑥-|
⑤①④⑧ |⑦-⑧-|
46
⑦③②⑥ |①-②-|
⑤①④⑧ |③-④-|
口口口口 |⑤-⑥-|
口口口口 |⑦-⑧-|
47
口①②口 |①-②-|
⑦③④⑧ |③-④-|
口⑤⑥口 |⑤-⑥-|
口口口口 |⑦-⑧-|
48
口①②口 |①-②-|
⑦③④⑧ |③-④-|
口⑤⑥口 |⑤-⑥-|
口口口口 |⑦-⑧-|
49
①③④② |①-②-|
⑤⑦⑧⑥ |③-④-|
口口口口 |⑤-⑥-|
口口口口 |⑦-⑧-|
50
口⑦⑧口 |①-②-|
口⑤⑥口 |③-④-|
口③④口 |⑤-⑥-|
口①②口 |⑦-⑧-|
51
口口口口 |①-②-|
①口口② |----|
①口口② |----|
口口口口 |----|
52
口口口口 |①---|
口口口口 |----|
口①①口 |----|
口口口口 |----|
53
口口口口 |①---|
口口口口 |----|
口口口口 |----|
口①①口 |----|
54
口口口口 |①-②-|
②口口② |----|
①③口① |----|
口口③口 |--③-|
55
口口口口 |--①-|
口口口口 |--②-|
口口①口
②①口②

④口口④
口口口口
③⑤⑤③ |--③-|
口口口口 |④-⑤-|
56
口①①口 |①--②|
③④口③ |--③-|
口口④口 |--④-|
口⑤②口 |--⑤-|
57
口口口口 |①--②|
②⑤⑤② |--③-|
①③口① |--④-|
④口③④ |--⑤-|
58
口①①口 |①--②|
③口口③ |--③-|
②口口② |----|
口口口口 |----|
59
口③④口 |----|
②口口⑤ |--①-|
口口①口 |②-③-|
口口口口 |④-⑤-|
60
口④⑥⑤ |①--②|
③口③口 |--③-|
②口②口 |--④-|
①口①口 |⑤-⑥-|
61
口口口口 |①--②|
⑥③口③ |--③-|
口②⑤② |--④-|
④①口① |⑤-⑥-|
62
④⑤⑥④ |①--②|
口口②口 |--③-|
口③口口 |④--⑤|
口①①口 |--⑥-|
63
④口口口 |①--②|
口②③口 |--③-|
口③②⑤ |----|
①口口① |④-⑤-|
64
口口①口 |①-②-|
口④口口 |--③-|
口口口口 |----|
②口口③ |--④-|
65
口④口④ |①---|
③口③口 |②---|
口②口② |③---|
①口①口 |④---|
66
口口口口 |①--②|
口①口口 |--③-|
③口①③ |----|
②口口② |----|
67
口口口口 |----|
口①②口 |①---|
口②①口 |②---|
③③③③ |③---|
68
①①①① |①-②-|
口口口④ |③-④-|
③口②口
口口口口

⑦口口口
⑤口口口
口口口⑥ |⑤-⑥-|
口口口⑧ |⑦-⑧-|
69
口⑦④口 |①-②-|
口③⑥口 |③-④-|
口⑤②口 |⑤-⑥-|
口①⑧口 |⑦-⑧-|
70
⑦口口② |①-②-|
⑤口口④ |③-④-|
③口口⑥ |⑤-⑥-|
①口口⑧ |⑦-⑧-|
71
口①⑧口 |①-②-|
口⑤②口 |③-④-|
口③⑥口 |⑤-⑥-|
口⑦④口 |⑦-⑧-|
72
⑦口口② |①-②-|
⑤口口④ |③-④-|
③口口⑥ |⑤-⑥-|
①口口⑧ |⑦-⑧-|
73
口⑦④口 |①-②-|
口③⑥口 |③-④-|
口⑤②口 |⑤-⑥-|
口①⑧口 |⑦-⑧-|
74
⑦口口② |①-②-|
⑤口口④ |③-④-|
③口口⑥ |⑤-⑥-|
①口口⑧ |⑦-⑧-|
75
⑤①①⑤ |①---|
②口口② |--②-|
④②②④ |--③-|
③口口③ |④-⑤-|
76
口口口口 |①---|
口①①口 |----|
口口口口 |----|
口口口口 |----|


不確定度: 0

最終更新:2014年02月17日 17:51