恋はどう?モロ◎波動OK☆方程式!!
あべにゅぅぷろじぇくと feat.佐倉紗織 produced by ave;new

EXTREME

Level: 9
BPM: 128
Notes: 827

1
口口口口 |----|
口口口口 |----|
口口口口 |----|
口口口口 |----|
2
口口口口 |①-②-|
口①②③ |③--④|
口⑥口③ |-⑤-⑥|
口⑥⑤④ |----|
3
②①①口 |①---|
②①口口 |②---|
口口口口
口口口口

口⑤口口
口⑤③③
④④③口 |③-④-|
④④③③ |⑤---|
4
①口口⑤ |①-②-|
②口口④ |③④-⑤|
⑤③③①
④口口②

⑥⑥口口
⑥⑥口口
口口⑦⑦ |----|
口口⑦⑦ |⑥-⑦-|
5
口口口③ |①②③④|
口⑤①口 |--⑤⑥|
④②⑥口
口④口口

⑦口口口
口口口口
口口口⑧ |⑦⑧--|
口⑨⑧⑨ |⑨---|
6
口①②① |①---|
④③②③ |②--③|
口③②③ |----|
口口②口 |--④-|
7
口①②③ |①-②③|
口口①④ |④⑤⑥⑦|
⑧口⑤口 |----|
口⑧⑥⑦ |--⑧-|
8
⑤①口② |①-②③|
①口口口 |④⑤⑥⑦|
⑦⑦口⑥
③口口④

口⑧口口
⑩口口口
口口口口 |-⑧⑨⑩|
⑪口⑨⑪ |--⑪-|
9
①口⑤① |①---|
口②口⑤ |②③④⑤|
口④③口
⑤口口口

⑧⑥口⑦
⑥口口口
⑦口口⑧ |-⑥-⑦|
口⑦⑧⑥ |-⑧--|
10
口③②口 |①---|
③①①② |②--③|
②①①③
口②③口

口口口④
口口④口
口口口口 |----|
口口口⑤ |-④-⑤|
11
②④⑦口 |①-②③|
口口口⑦ |④⑤⑥⑦|
⑥①口③
①口⑤口

口口口口
口⑧⑧口
口口口口 |----|
⑧口口⑧ |--⑧-|
12
⑤①①② |①--②|
口口⑥⑥ |③④⑤⑥|
①③口①
口口④口

口口⑦口
⑪⑧口口
⑫口⑨⑨ |-⑦⑧⑨|
口口口⑩ |-⑩⑪⑫|
13
⑧③口⑦ |①②③④|
⑧④口⑥ |⑤⑥⑦⑧|
口口⑤口
①②口口

口⑫口口
口⑬口口
口⑪口口 |-⑨⑩⑪|
⑨⑪口⑩ |-⑫⑬-|
14
④口①① |①-②③|
④口①① |--④-|
④口②②
口口③③

口⑥口⑥
口⑤⑥口
口⑤口口 |⑤⑥--|
⑩⑨⑧⑦ |⑦⑧⑨⑩|
15
③④⑤⑦ |①②③④|
口口⑦⑤ |⑤-⑥⑦|
口⑥②①
口口口口

口口口口
⑨口口口
口口⑩⑪ |-⑧⑨-|
⑧口⑪⑩ |-⑩⑪-|
16
⑦⑤④③ |①②③④|
⑤⑦口口 |⑤-⑥⑦|
①②⑥口
口口口口

口口口⑬
口口⑬口
⑪⑫口⑩ |⑧⑨⑩-|
口⑨⑧⑩ |⑪⑫⑬-|
17
⑨②④⑥ |①-②-|
②④⑥⑧ |③-④-|
口口口口 |⑤-⑥-|
①③⑤⑦ |⑦⑧⑨-|
18
口口①⑤ |①-②-|
口②③口 |③④-⑤|
①④口②
③⑤④口

⑥⑥口口
⑥⑥口口
口口⑦⑦ |----|
口口⑦⑦ |⑥-⑦-|
19
口口④① |①-②-|
口口②⑤ |③-④⑤|
④③口口
①⑤口口

口口口口
⑦口⑧口
口⑧口⑥ |----|
口口口口 |-⑥⑦⑧|
20
③④④② |①-②-|
口①口口 |③④-⑤|
口口①口
②⑤⑤③

口口口⑧
口口口⑧
⑥⑦口口 |---⑥|
口口口口 |⑦⑧--|
21
口⑦⑥⑧ |--①-|
⑤③②④ |②③④⑤|
口口口口 |----|
口①①口 |-⑥⑦⑧|
22
①⑤口口 |①-②-|
②⑤口② |③④-⑤|
口③口④
口口口④

口口⑩⑩
口口⑨⑩
⑥⑧口口 |--⑥-|
⑦⑥口口 |⑦⑧⑨⑩|
23
口①口口 |--①②|
②口口口 |③④-⑤|
口口口④
⑤⑤③口

⑥口口口
⑦⑥口⑥
⑥口⑥⑧ |----|
口口口⑥ |⑥-⑦⑧|
24
④③②① |--①②|
口⑥⑥⑤ |③④⑤⑥|
⑤口口口
①②③④

口口口口
口口口口
⑦⑦⑦⑦ |----|
口口口口 |---⑦|
25
口①口口 |--①-|
口①③④ |②③④⑤|
口口口口
②①口⑤

⑩口⑨口
⑩⑧口口
口口⑦口 |---⑥|
口⑥口口 |⑦⑧⑨⑩|
26
口口口口 |-①②③|
口⑤②① |④-⑤⑥|
④③⑥口
口口口口

口⑧口⑦
⑧口⑦口
口⑦口口 |----|
⑦口口口 |⑦-⑧-|
27
口口③⑤ |①-②-|
口②口③ |③④⑤⑥|
④口②①
⑥④①口

⑩⑪口口
⑦口口口
口⑧口口 |-⑦⑧⑨|
口口⑨⑨ |--⑩⑪|
28
口口①口 |①-②③|
⑥③⑧⑤ |④⑤-⑥|
②⑦④⑨ |⑦⑧⑨-|
口口口口 |----|
29
口①①口 |①-②③|
口②③口 |④⑤⑥⑦|
口④⑤口
口⑥⑦口

⑧⑨⑩⑪
口⑫⑬口
口口口口 |-⑧⑨⑩|
口口口口 |⑪-⑫⑬|
30
④④⑤⑥ |①②③④|
③口口⑦ |-⑤⑥⑦|
②口口⑦
①口口口

⑫⑫口口
口口⑪口
口⑪口口 |-⑧⑨⑩|
口⑩⑨⑧ |⑪-⑫-|
31
口口⑦口 |①②③④|
口③⑧口 |⑤⑥⑦⑧|
②⑥④口
①口⑤口

⑪⑩口⑨
⑫⑬口口
口口⑬⑭ |⑨⑩⑪⑫|
口口⑭口 |⑬-⑭-|
32
口口⑤口 |①②③④|
口口⑥⑧ |⑤⑥⑦⑧|
①③⑦口
②④口口

口⑩口⑪
口口口口
口⑮⑮⑨ |⑨-⑩⑪|
⑫⑭⑬口 |⑫⑬⑭⑮|
33
①③口口 |-①②③|
②④口⑤ |④-⑤-|
⑨⑩⑦⑤ |⑥⑦⑧-|
⑪口⑧⑥ |⑨⑩⑪-|
34
口口②④ |①-②③|
口⑤③⑥ |④⑤⑥⑦|
口口⑦口
口①口口

口口口口
⑨口口口
⑩⑫口口 |⑧-⑨⑩|
⑪⑬⑧口 |⑪⑫⑬-|
35
①③④② |①②③④|
⑤⑦⑧⑥ |⑤⑥⑦⑧|
口口口口
口口口口

口口口口
口⑬口口
⑨⑫口⑩ |⑨-⑩-|
⑨⑪⑪⑩ |⑪-⑫⑬|
36
①①④④ |①-②③|
⑤口③⑤ |④-⑤-|
⑥口②⑥ |⑥-⑦-|
⑦⑧⑧⑦ |⑧---|
37
①口口② |①-②-|
口口口口 |③-④-|
口口口口
③口口④

⑩⑩⑩⑩
⑤⑥⑦口
口⑨⑧口 |⑤⑥⑦⑧|
口口口口 |⑨-⑩-|
38
口口口口 |①-②-|
②③④② |③④⑤-|
②⑤⑥② |⑥---|
①①①① |----|
39
口①③口 |①-②-|
①口口③ |③-④-|
④口口②
口④②口

⑥⑥口⑤
⑥⑥⑤口
口⑤⑦⑦ |⑤---|
⑤口⑦⑦ |⑥-⑦-|
40
口口口① |----|
口口①口 |①---|
口②口口 |②---|
②③口③ |③---|
41
口①②① |①---|
④③②③ |②--③|
口③②③ |----|
口口②口 |--④-|
42
口①②③ |①-②③|
口口①④ |④⑤⑥⑦|
口口⑤⑧ |----|
⑧口⑥⑦ |--⑧-|
43
口③②① |①-②③|
①⑦④⑦ |④⑤⑥⑦|
⑤口口口
口口口⑥

⑩⑪⑪⑩
口口口口
口⑧⑧⑧ |-⑧⑨-|
口口⑨口 |⑩-⑪-|
44
口口口口 |①-②-|
⑥②③① |③④⑤⑥|
口④口⑥
口②⑤①

⑧口口⑨
口口口⑦
⑦口口口 |-⑦-⑧|
⑨口口⑧ |-⑨--|
45
口①①口 |①--②|
②①②③ |③-④⑤|
口①④③
口口⑤③

⑦⑧口口
口口口口
口口口口 |----|
口口口⑥ |-⑥⑦⑧|
46
口口①② |①②③④|
③④⑤⑥ |⑤⑥⑦⑧|
⑦口口⑧
口口口口

口口⑨口
口口口⑨
口口口口 |----|
⑨口口口 |--⑨-|
47
③①口② |①-②-|
①口口口 |③-④⑤|
②⑤④③
口②③①

口⑧⑧口
⑦⑨⑨⑥
口口口口 |-⑥⑦⑧|
口口口口 |--⑨-|
48
⑥口口⑥ |①-②③|
口口口口 |④⑤-⑥|
①⑤④①
①③②①

口⑨⑨口
口⑧⑦口
口口口口 |-⑦⑧⑨|
口⑪⑩口 |-⑩⑪-|
49
口口口口 |①---|
①口口① |----|
①①口①
①口口①

口口②口
口③②③
口③②③ |②③--|
口口②口 |----|
50
口口口口 |①---|
②口②口 |----|
②②②口 |-②--|
口②口① |----|
51
③④⑤① |①-②③|
③④⑤① |-④-⑤|
⑥⑦⑧② |-⑥⑦⑧|
③④⑤① |----|
52
③④⑤① |①-②③|
③④⑤① |-④-⑤|
⑥⑦⑧② |-⑥⑦⑧|
③④⑤① |----|
53
③④⑤① |①-②③|
③④⑤① |-④-⑤|
⑥⑦⑧② |-⑥⑦⑧|
③④⑤① |----|
54
③④⑤① |①-②③|
③④⑤① |-④-⑤|
⑥⑦⑧② |-⑥⑦⑧|
③④⑤① |----|
55
③④⑤① |①-②③|
③④⑤① |-④-⑤|
⑥⑦⑧② |-⑥⑦⑧|
③④⑤① |----|
56
③④⑤① |①-②③|
③④⑤① |-④-⑤|
⑥⑦⑧② |-⑥⑦⑧|
③④⑤① |----|
57
③④⑤① |①-②③|
③④⑤① |-④-⑤|
⑥⑦⑧② |-⑥⑦⑧|
③④⑤① |----|
58
③④⑤① |①-②③|
③④⑤① |-④-⑤|
⑥⑦⑧② |-⑥⑦⑧|
③④⑤① |----|
59
⑤⑨口① |①②③④|
⑥口⑩② |--⑤⑥|
⑦⑪口③ |⑦⑧--|
⑧口⑫④ |⑨⑩⑪⑫|
60
口②②口 |①---|
①②口① |----|
口②②口 |②---|
口口口口 |----|


不確定度: 0

最終更新:2014年02月17日 17:53