Get Off of My Way
MAN WITH A MISSON

BASIC

Level: 4
BPM: 135
Notes: 279

1
口口口口 |----|
口口口口 |----|
口口口口 |----|
口口口口 |----|
2
口口口口 |①---|
②口④口 |②---|
口口口口 |③---|
①口③口 |④---|
3
口口③口 |----|
口②口口 |①---|
口①口口 |②---|
口口口口 |③---|
4
②口④口 |①---|
口口口口 |②---|
①口③口 |③---|
口口口口 |④---|
5
口③口口 |①---|
口②④口 |②---|
口①口口 |③---|
口口口口 |④---|
6
口口口口 |①---|
口④口② |②---|
口口口口 |③---|
口③口① |④---|
7
口③口口 |----|
口口②口 |①---|
口口①口 |②---|
口口口口 |③---|
8
口④口② |①---|
口口口口 |②---|
口③口① |③---|
口口口口 |④---|
9
口口口口 |①---|
①口①口 |----|
口口口口 |----|
口口口口 |----|
10
口口口④ |①---|
③口口口 |②---|
口口口② |③---|
①口口口 |④---|
11
①④④口 |①---|
口③③口 |②---|
口口口② |③---|
口口口口 |④---|
12
口口④口 |①---|
口③口口 |②---|
口口②口 |③---|
口①口口 |④---|
13
口④④② |①---|
口③③口 |②---|
①口口口 |③---|
口口口口 |④---|
14
④口口口 |①---|
口口口③ |②---|
②口口口 |③---|
口口口① |④---|
15
口④④① |①---|
口③③口 |②---|
②口口口 |③---|
口口口口 |④---|
16
口④口口 |①---|
口口③口 |②---|
口②口口 |③---|
口口①口 |④---|
17
②④④口 |①---|
口③③口 |②---|
口口口① |③---|
口口口口 |④---|
18
③口口② |①---|
口口口② |②---|
口口④口 |③---|
口①口口 |④---|
19
口口口口 |----|
口③②① |①---|
口口口口 |②---|
口口口口 |③---|
20
②口口③ |①---|
②口口口 |②---|
口④口口 |③---|
口口①口 |④---|
21
口口口口 |①---|
②④①③ |②---|
口口口口 |③---|
口口口口 |④---|
22
③口口② |①---|
口口口② |②---|
口口④口 |③---|
口①口口 |④---|
23
口口口口 |----|
口③②① |①---|
口口口口 |②---|
口口口口 |③---|
24
②口口③ |①---|
②④口口 |②---|
口④口口 |③---|
口口①口 |④---|
25
口口口口 |①---|
②④①③ |②---|
口口口口 |③---|
口口口口 |④---|
26
口口②② |①---|
③口口口 |②---|
口口④口 |③---|
①口口口 |④---|
27
①口②口 |----|
口③口口 |①---|
口口口口 |②---|
口口口口 |③---|
28
②②口口 |①---|
口口口③ |②---|
口④口口 |③---|
口口口① |④---|
29
口口口口 |①---|
口口口口 |②---|
④口口① |③---|
口③②口 |④---|
30
口口②② |①---|
③口口口 |②---|
口口④口 |③---|
①口口口 |④---|
31
①口②口 |----|
口③口口 |①---|
口口口口 |②---|
口口口口 |③---|
32
②②口口 |①---|
口口口③ |②---|
口④口口 |③---|
口口口① |④---|
33
④口口④ |①---|
③口口③ |②---|
口口口① |③---|
②口口口 |④---|
34
口口④④ |①---|
③③口口 |②---|
口口②② |③---|
①①口口 |④---|
35
①②口口 |①---|
口口④③ |②---|
①②口口 |③---|
口口④③ |④---|
36
口口④④ |①---|
③③口口 |②---|
口口②② |③---|
①①口口 |④---|
37
①②口口 |①---|
口口④③ |②---|
①②口口 |③---|
口口④③ |④---|
38
口口①① |①---|
②②口口 |②---|
口口③③ |③---|
④④口口 |④---|
39
③④口口 |①---|
口口②① |②---|
③④口口 |③---|
口口②① |④---|
40
口口①① |①---|
②②口口 |②---|
口口③③ |③---|
④④口口 |④---|
41
③④口口 |①---|
口口②① |②---|
③④口口 |③---|
口口②① |④---|
42
口口口口 |①---|
口口口口 |②---|
口④④口 |③---|
①②③口 |④---|
43
口④④口 |①---|
③②①口 |②---|
口口口口 |③---|
口口口口 |④---|
44
口口口① |①---|
口口②口 |②---|
口④口口 |③---|
③口口口 |④---|
45
③口口口 |①---|
口④口口 |②---|
口口②口 |③---|
口口口① |④---|
46
口口口口 |①---|
口口口口 |②---|
口④④口 |③---|
①②③口 |④---|
47
口④④口 |①---|
③②①口 |②---|
口口口口 |③---|
口口口口 |④---|
48
口口口① |①---|
④口口口 |②---|
口口口② |③---|
③口口口 |④---|
49
口口①口 |①---|
口④口口 |②---|
口口②口 |③---|
口③口口 |④---|
50
口口口口 |①---|
口口口① |②---|
口口口口 |③---|
①②③④ |④---|
51
口口口口 |①---|
④③②口 |②---|
口①①口 |③---|
口口口口 |④---|
52
口口口① |①---|
口口②口 |②---|
口④口口 |③---|
③口口口 |④---|
53
③口口口 |①---|
口④口口 |②---|
口口②口 |③---|
口口口① |④---|
54
口口口口 |①---|
口口口口 |②---|
口口①口 |③---|
①②③④ |④---|
55
口口口口 |①---|
④③②口 |②---|
口①①口 |③---|
口口口口 |④---|
56
①口口① |①---|
口口②口 |----|
口口口口 |②---|
口③口口 |③---|
57
口口口口 |①---|
口①口口 |②---|
口口口口
口口②口

口口口口
口④口口
口口③④ |③---|
③口口口 |④---|
58
①口口① |①---|
口口口口 |----|
口口口口 |----|
口口口口 |----|

不確定度: 0

最終更新:2014年08月01日 00:04