Get Off of My Way
MAN WITH A MISSON

ADVANCED

Level: 8
BPM: 135
Notes: 567

1
口口口口 |----|
口口口口 |----|
口口口口 |----|
口口口口 |----|
2
口口②⑦ |①---|
口③口⑥ |②---|
①⑤④口 |③④-⑤|
口③口口 |-⑥⑦-|
3
⑧⑤②⑧ |--①-|
①③⑥口 |②③-④|
⑦口④⑦ |-⑤⑥-|
口口口口 |⑦-⑧-|
4
口口②口 |①---|
口口口口 |②---|
口①口口
口口口口

口口口⑦
口③口⑥
口⑤④口 |③④-⑤|
口③口口 |-⑥-⑦|
5
②口③口 |-①②-|
①口口口 |③-④-|
口口④口
口口口口

口⑧⑧口
口⑥⑥口
⑤口口⑤ |⑤-⑥-|
⑦口口⑦ |⑦-⑧-|
6
⑦口口② |①---|
⑥口③口 |②---|
口④⑤口 |③④-⑤|
口①③口 |-⑥⑦-|
7
⑧②⑤⑧ |--①-|
口⑥③① |②③-④|
⑦④口⑦ |-⑤⑥-|
口口口口 |⑦-⑧-|
8
口口②口 |①---|
口③口⑦ |②---|
⑥口④口 |③④-⑤|
①口⑤口 |-⑥⑦-|
9
①②口① |①---|
②口口口 |----|
口口口③ |-②-③|
口口③口 |----|
10
口口④③ |①②-③|
⑤⑥口口 |④-⑤⑥|
口口口口
①②口口

口口口⑪
口口口口
口口⑧⑦ |-⑦⑧-|
⑨⑩口口 |⑨⑩-⑪|
11
②③①口 |①-②③|
⑥⑧⑦⑨ |-④⑤-|
⑨⑦⑧⑥ |⑥-⑦-|
口口⑤④ |⑧-⑨-|
12
口口④③ |①②-③|
⑤⑥口口 |④-⑤⑥|
口口口口
①②口口

口口口⑪
口口口口
口口⑧⑦ |-⑦⑧-|
⑨⑩口口 |⑨⑩-⑪|
13
⑧⑤①口 |①-②-|
⑧③②口 |③-④⑤|
口②③⑦ |-⑥⑦-|
口⑥④⑦ |⑧---|
14
口⑥口口 |①②-③|
⑤④⑩⑪ |④-⑤⑥|
③②⑧⑨ |-⑦⑧-|
①口口⑦ |⑨⑩-⑪|
15
口口①口 |①-②③|
口⑤口口 |-④⑤-|
④③口口
②口口口

⑧口⑨⑨
⑥口口⑧
口口口⑥ |⑥-⑦-|
口口⑦⑦ |⑧-⑨-|
16
口⑥口口 |①②-③|
⑤④⑩⑪ |④-⑤⑥|
③②⑧⑨ |-⑦⑧-|
①口口⑦ |⑨⑩-⑪|
17
⑧⑤①⑧ |①-②-|
口②口口 |③-④⑤|
口③⑥④ |-⑥⑦-|
⑦口口⑦ |⑧---|
18
口②口口 |①---|
②口②⑦ |②---|
口⑤④① |③④-⑤|
③口①⑥ |-⑥⑦-|
19
①口口② |--①-|
口口③口 |②③-④|
口口口口
口口④口

口⑤口⑧
⑥口口口
口口⑦口 |-⑤⑥-|
口口口口 |⑦-⑧-|
20
口口②⑦ |①---|
⑥②口② |②---|
①④口口 |③④-⑤|
⑤①③口 |-⑥-⑦|
21
⑤②⑤口 |-①②-|
⑦①③⑦ |③-④-|
⑥口口口 |⑤-⑥-|
口⑧④口 |⑦-⑧-|
22
②口②口 |①---|
口②口⑦ |②---|
口⑤④① |③④-⑤|
③口①⑥ |-⑥⑦-|
23
①⑤⑧② |--①-|
⑥口口口 |②-③④|
口③⑦口 |-⑤⑥-|
口口④口 |⑦-⑧-|
24
⑤②⑤② |①---|
口⑤②⑥ |②---|
①③口口 |③④-⑤|
口①④口 |---⑥|
25
口⑥⑤⑤ |-①②-|
②⑥③口 |③-④-|
①口⑧口 |⑤-⑥-|
⑦⑦⑧④ |⑦-⑧-|
26
口②⑦口 |①---|
②⑤②⑧ |②--③|
口①④口 |④⑤-⑥|
口③⑥① |-⑦⑧-|
27
口⑥口② |--①-|
⑤口⑧口 |②-③④|
①口口③ |-⑤⑥-|
口口④⑦ |⑦-⑧-|
28
⑤口②⑦ |①---|
口②口② |②---|
⑥④①口 |③④-⑤|
①口③口 |-⑥-⑦|
29
⑤②口⑦ |-①②-|
⑦①③⑤ |③-④-|
口口口口 |⑤-⑥-|
⑧⑥④口 |⑦-⑧-|
30
②口②口 |①---|
口②口口 |②---|
口①口口
口口口①

口口⑦口
口口⑥口
口口③口 |③④-⑤|
口④⑤口 |-⑥⑦-|
31
口⑥⑧② |--①-|
⑤口口口 |②-③④|
①口口③ |-⑤⑥-|
口口④⑦ |⑦-⑧-|
32
口②口② |①---|
口口②口 |②---|
口口①口
①口口口

⑤口口⑦
口口口口
⑥④口口 |③④-⑤|
口口③口 |-⑥-⑦|
33
口②口口 |-①②-|
口①③口 |③-④-|
口口口口
口口④口

⑤⑧⑧⑦
⑦口口⑤
口⑥⑥口 |⑤-⑥-|
口口口口 |⑦-⑧-|
34
⑥口口口 |①②-③|
口口⑤⑤ |④-⑤⑥|
④口口②
①①③③

口口口⑧
⑦⑦口口
口口口⑩ |-⑦⑧-|
⑨⑨⑪⑪ |⑨⑩-⑪|
35
③⑥⑧⑤ |①-②③|
④④②② |-④⑤-|
①⑦⑨口 |⑥-⑦-|
口口口口 |⑧-⑨-|
36
⑥口口口 |①②-③|
口口⑤⑤ |④-⑤⑥|
④口口②
①①③③

口口口⑧
⑦⑦口口
口口口⑩ |-⑦⑧-|
⑨⑨⑪⑪ |⑨⑩-⑪|
37
③口⑤口 |①-②-|
口④口② |③-④⑤|
①口口口
口口口口

口⑧口⑧
口口口口
⑦口⑦⑥ |-⑥⑦-|
口口口口 |⑧---|
38
口口口⑥ |①②-③|
④口口② |④-⑤⑥|
⑤⑤口口
①①③③

⑧口口口
口口口⑩
口口⑦⑦ |-⑦⑧-|
⑨⑨⑪⑪ |⑨⑩-⑪|
39
⑤⑧⑥③ |①-②③|
①⑦⑨口 |-④⑤-|
②②④④ |⑥-⑦-|
口口口口 |⑧-⑨-|
40
口口口⑥ |①②-③|
④口口② |④-⑤⑥|
⑤⑤口口
①①③③

⑧口口口
口口口⑩
口口⑦⑦ |-⑦⑧-|
⑨⑨⑪⑪ |⑨⑩-⑪|
41
口口口口 |①-②-|
①口③口 |③-④⑤|
⑤②口口
口④口口

口口口⑦
⑧口口口
口口口⑦ |-⑥⑦-|
⑧口⑥口 |⑧---|
42
③⑤口口 |--①-|
⑦②口口 |②③-④|
④⑥口口 |--⑤-|
口①口口 |⑥-⑦-|
43
口口⑤③ |--①-|
口口②⑦ |②③-④|
口口⑥④ |--⑤-|
口口①口 |⑥-⑦-|
44
⑦口口② |①-②-|
口⑤④口 |③-④-|
③口口⑥ |⑤-⑥-|
口①⑧口 |⑦-⑧-|
45
口口⑤口 |①-②-|
口③④⑦ |③-④-|
①口口口 |⑤-⑥-|
口②⑧⑥ |⑦-⑧-|
46
③⑤口口 |--①-|
⑦②口口 |②③-④|
④⑥口口 |--⑤-|
口①口口 |⑥-⑦-|
47
口口⑤③ |--①-|
口口②⑦ |②③-④|
口口⑥④ |--⑤-|
口口①口 |⑥-⑦-|
48
口口⑦口 |①-②-|
⑥③口口 |③-④-|
②口⑧④ |⑤-⑥-|
口⑤①口 |⑦-⑧-|
49
口⑤口③ |--①-|
口口④口 |②-③-|
②⑦口口 |④-⑤-|
口①⑥口 |⑥-⑦-|
50
④口口口 |①-②-|
①③口① |③④-⑤|
⑤口口口
口②口③

口⑥口口
⑧口口⑦
口⑦口口 |--⑥-|
口口口口 |⑦-⑧-|
51
口口⑤③ |--①-|
⑥口②⑦ |②③-④|
口口⑥④ |--⑤-|
②口①口 |⑥-⑦-|
52
⑦口口② |①-②-|
口⑤④口 |③-④-|
③口口⑥ |⑤-⑥-|
口①⑧口 |⑦-⑧-|
53
口③⑤口 |--①-|
①口④⑦ |②-③-|
口口口口 |④-⑤-|
口②口⑥ |⑥-⑦-|
54
④⑥⑦口 |①-②-|
⑧③口口 |③④-⑤|
⑤⑦③① |--⑥-|
口②口口 |⑦-⑧-|
55
⑥口⑤③ |--①-|
口口②⑦ |②③-④|
②口⑥④ |--⑤-|
口口①口 |⑥-⑦-|
56
⑤①⑤① |①-②-|
口⑥②口 |③-④-|
⑦③⑦③ |⑤-⑥-|
口⑧④口 |⑦-⑧-|
57
口①口① |①-②-|
口口②口 |③-④-|
⑤③⑥③ |⑤-⑥-|
口⑦④⑧ |⑦-⑧-|
58
①口①口 |①---|
口口口口 |----|
口①口口 |----|
口口口口 |----|

不確定度: 0

最終更新:2014年08月01日 00:04