愛は不死鳥の様に
真紅の薔薇の騎士Prim

BASIC

Level: 6
BPM: 192
Notes: 351

1
口口口口 |----|
口口口口 |----|
口口口口 |----|
口口口口 |----|
2
口口口口 |----|
口口口口 |----|
口口口口 |----|
口口口口 |----|
3
①②口口 |①---|
口③④口 |②---|
口口口口 |③---|
口口口口 |④---|
4
口口口口 |①---|
口口口口 |②---|
口口②① |③-④-|
③④⑤⑥ |⑤-⑥-|
5
④②口① |①---|
口③口口 |②---|
口口口口 |③---|
口口口口 |④---|
6
口口口口 |①---|
口口口口 |②---|
①②口口 |③-④-|
⑥⑤④③ |⑤-⑥-|
7
①②口口 |①---|
口③④口 |②---|
口口口口 |③---|
口口口口 |④---|
8
口口口口 |①---|
③④⑥口 |②---|
口⑤②① |③-④-|
口口口口 |⑤-⑥-|
9
口口口口 |①---|
口口口① |--②-|
②口口② |--③-|
④③③④ |--④-|
10
①②②① |--①-|
③口口③ |②-③-|
④⑤⑤④ |--④-|
⑥口口⑥ |⑤-⑥-|
11
口口口口 |----|
①②③口 |①---|
口口口口 |②---|
口口口口 |③---|
12
口②口口 |①---|
口口口口 |----|
口①口口 |②---|
口口口口 |----|
13
口口口口 |①---|
口④口① |②---|
口口②口 |③---|
口③口口 |④---|
14
口口④口 |①-②-|
口口口③ |③-④-|
口口②口 |----|
口口口① |----|
15
口①②口 |①---|
口②①口 |----|
口口口口 |②---|
口口口口 |----|
16
口口口口 |①---|
口口口口 |----|
口①②口 |②---|
口②①口 |----|
17
①口口口 |①---|
口口②口 |②---|
口③口口 |③---|
口口④口 |④---|
18
④口口④ |①-②-|
③口口③ |③-④-|
②口口② |----|
①口口① |----|
19
口口口口 |----|
口③②① |①---|
口口口口 |②---|
口口口口 |③---|
20
口口②口 |①---|
口口口口 |----|
口口①口 |②---|
口口口口 |----|
21
口口口口 |①---|
①口④口 |②---|
口②口口 |③---|
口口③口 |④---|
22
口④口口 |①-②-|
③口口口 |③-④-|
口②口口 |----|
①口口口 |----|
23
口口口口 |①---|
口口口口 |----|
口②①口 |②---|
口①②口 |----|
24
口②①口 |①---|
口①②口 |----|
口口口口 |②---|
口口口口 |----|
25
口口口① |①---|
口②口口 |②---|
口口③口 |③---|
口④口口 |④---|
26
口口口口 |①---|
口口口口 |----|
口②②口 |----|
①口口① |②---|
27
口口②口 |①---|
①口口① |----|
口口口口 |----|
口口口口 |②---|
28
口口口口 |①---|
口口①口 |----|
口②口口 |②---|
口口③口 |③---|
29
口口④口 |①---|
口③口口 |②---|
口口②口 |③---|
口①口口 |④---|
30
①口口① |①---|
②口口② |----|
口口口口 |②---|
口口口口 |----|
31
口口口口 |①---|
口口④口 |②---|
口口③口 |③---|
①②口口 |④---|
32
口③①③ |①---|
口②口② |②---|
口④口④ |③---|
口口口口 |④---|
33
口口④口 |①---|
口口②口 |②---|
口口③口 |③---|
口口①口 |④---|
34
口①口① |①---|
口②口口 |----|
口口②口 |----|
口口口口 |②---|
35
⑥口口⑥ |①---|
⑤口①⑤ |--②-|
④①口④ |③-④-|
③②②③ |⑤-⑥-|
36
口口口口 |----|
口口①口 |----|
口①口口 |----|
口口口口 |①---|
37
③②②③ |①---|
④①口④ |--②-|
⑤口①⑤ |③-④-|
⑥口口⑥ |⑤-⑥-|
38
口口口口 |----|
口口①口 |----|
口①口口 |----|
口口口口 |①---|
39
口口口口 |①---|
口①口口 |----|
口口①口 |----|
口口口口 |----|
40
口口③口 |----|
②④口② |--①-|
①口口① |②---|
口口口口 |③-④-|
41
口口口口 |①---|
口口口口 |----|
口口①口 |----|
口口口口 |----|
42
口口④④ |①-②-|
③③口口 |③-④-|
口口②② |----|
①①口口 |----|
43
①口口口 |①---|
口②口③ |②---|
口口③口 |③---|
口口口口 |----|
44
口口口① |①-②-|
口口②口 |③-④-|
⑤③口⑤ |----|
④口口口 |⑤---|
45
口④③口 |①---|
口②⑤口 |--②-|
口口口口 |③---|
口①①口 |④-⑤-|
46
口口口口 |①---|
口口口口 |----|
①口口① |----|
口②口口 |②---|
47
口口口口 |①---|
口③口口 |②---|
③口②口 |③---|
口口口① |----|
48
口口口④ |①-②-|
口口③口 |③-④-|
口②口口 |----|
①口口口 |----|
49
口口口口 |①---|
①口口① |--②-|
口②③口 |----|
口③②口 |--③-|
50
②口口② |----|
口③③口 |--①-|
④口口④ |--②-|
①口口① |③-④-|
51
口口口口 |----|
口口口口 |----|
口口口口 |①---|
口①口口 |----|
52
口口口口 |①---|
口口口口 |----|
口②口口 |②---|
口口①口 |----|
53
口口口口 |①---|
口②口口 |----|
口口①口 |②---|
口口口口 |----|
54
口②口口 |①---|
口口①口 |----|
口口口口 |②---|
口口口口 |----|
55
②口①口 |①---|
口口口口 |----|
口口口口 |②---|
口口口口 |----|
56
口口口① |①---|
②口口口 |----|
口口口口 |②---|
口口口口 |----|
57
口口口口 |①---|
口口口① |----|
②口口口 |②---|
口口口口 |----|
58
口口口口 |①---|
口口③口 |----|
口③口① |②---|
口口口② |③---|
59
口①②口 |①---|
①口口口 |----|
口口口口 |----|
口口口口 |②---|
60
口④口口 |①---|
口⑤口① |②-③-|
⑥口②口 |--④-|
口③口口 |⑤-⑥-|
61
口口口② |①-②-|
口口③口 |③-④-|
口口口④ |----|
口口①口 |----|
62
口口口口 |①---|
⑤③②⑤ |②-③-|
口①①口 |--④-|
④口口④ |--⑤-|
63
①口口口 |----|
口②口口 |----|
口口口口 |①---|
口口口口 |②---|
64
口口口口 |①---|
口口口口 |----|
口口①口 |②---|
②口口② |----|
65
口口口口 |①---|
口③口口 |----|
口口②口 |②---|
口①①口 |③---|
66
④④口口 |①-②-|
口口③③ |③-④-|
②②口口 |----|
口口①① |----|
67
口口口口 |----|
口口口口 |----|
口口口口 |----|
口口口口 |----|
68
①口口口 |①---|
口②口③ |②---|
口口③口 |③---|
口口口口 |----|
69
口口口① |①-②-|
口口②口 |③-④-|
⑤③口⑤ |----|
④口口口 |⑤---|
70
口⑤④口 |①---|
口③⑥口 |②-③-|
口口②口 |④---|
口①①口 |⑤-⑥-|
71
口口口口 |①---|
口口口口 |----|
①口口① |----|
口②口口 |②---|
72
口口口口 |①---|
口③口口 |②---|
③口②口 |③---|
口口口① |----|
73
口口口④ |①-②-|
口口③口 |③-④-|
口②口口 |----|
①口口口 |----|
74
口口口口 |①---|
①口口① |--②-|
口②③口 |----|
口③②口 |--③-|
75
④口口④ |----|
口③③口 |--①-|
②①口② |--②-|
口口①口 |③-④-|
76
口口口口 |----|
口口口口 |----|
口口口口 |①---|
口①口口 |----|
77
口口口口 |①---|
口口口口 |----|
口②口口 |②---|
口口①口 |----|
78
口口口口 |①---|
口②口口 |----|
口口①口 |②---|
口口口口 |----|
79
口②口口 |①---|
口口①口 |----|
口口口口 |②---|
口口口口 |----|
80
②口①口 |①---|
口口口口 |----|
口口口口 |②---|
口口口口 |----|
81
口口口① |①---|
②口口口 |----|
口口口口 |②---|
口口口口 |----|
82
口口口口 |①---|
口口口① |----|
②口口口 |②---|
口口口口 |----|
83
口口口口 |①---|
口口口口 |----|
口口口① |②---|
②口口口 |----|
84
口口口口 |①---|
口口口口 |----|
口口口口 |----|
口口口① |----|
85
口④④口 |①-②-|
口③③口 |③-④-|
口②②口 |----|
口①①口 |----|

不確定度: 0

最終更新:2014年03月16日 15:36