Elemental Creation
dj TAKA meets DJ YOSHITAKA

ADVANCED

Level: 9
BPM: 212
Notes: 715

1
口口口口 |----|
口口口口 |----|
口口口口 |----|
口口口口 |----|
2
口口口口 |①-②-|
①⑤⑤② |--③-|
口④④口 |--④-|
口③③口 |--⑤-|
3
①口口① |①---|
口口口口 |----|
口口口口 |----|
口口口口 |----|
4
口口口口 |----|
①口口② |①-②-|
口④④口 |--③-|
口③③口 |--④-|
5
口①①口 |①---|
口口口口 |----|
口口口口 |----|
口口口口 |----|
6
口口口口 |①---|
口②③口 |②-③-|
口④⑤口 |--④-|
①口口① |⑤---|
7
①⑥⑥② |①-②-|
③口口④ |③-④-|
口口口口 |⑤---|
口⑤⑤口 |⑥---|
8
①口口② |①---|
口口③口 |----|
①口口② |②---|
口口口口 |③---|
9
口①④口 |①-②-|
③⑦口⑥ |③-④-|
口⑤②口 |⑤-⑥-|
口口⑧口 |⑦-⑧-|
10
口②口③ |①---|
口口口口 |--②-|
②口③口 |----|
①口口① |③---|
11
口口口口 |--①-|
①口③② |----|
口口口口 |②---|
口①②③ |③---|
12
口②口① |①---|
③口口口 |--②-|
②口①口 |----|
口③口口 |③---|
13
②口③口 |--①-|
口口①口 |----|
口②口③ |②---|
口口口① |③---|
14
口⑦口④ |①-②-|
③口⑥口 |③-④-|
口⑦②口 |⑤-⑥-|
⑤①口口 |⑦---|
15
口口口口 |①-②-|
⑦③口⑥ |③-④-|
⑤口④② |⑤-⑥-|
口①⑧口 |⑦-⑧-|
16
⑤①口⑥ |①-②-|
口口②口 |③-④-|
⑤③口⑥ |⑤---|
口口口④ |⑥---|
17
④口口⑤ |①-②-|
②②③口 |--③-|
口④⑤口 |--④-|
①①③口 |⑤---|
18
口②口③ |①---|
口口口口 |--②-|
②口③口 |----|
①口口① |③---|
19
口口口口 |--①-|
①口③② |----|
口口口口 |②---|
口①②③ |③---|
20
口②口① |①---|
③口口口 |--②-|
②口①口 |----|
口③口口 |③---|
21
②口③口 |--①-|
口口①口 |----|
口②口③ |②---|
口口口① |③---|
22
口⑦口④ |①-②-|
③口⑥口 |③-④-|
口⑦②口 |⑤-⑥-|
⑤①口口 |⑦---|
23
口口口口 |①-②-|
⑦③口⑥ |③-④-|
⑤口④② |⑤-⑥-|
口①⑧口 |⑦-⑧-|
24
⑤①口⑥ |①-②-|
口口②口 |③-④-|
⑤③口⑥ |⑤---|
口口口④ |⑥---|
25
⑤口④口 |①-②-|
口③⑥口 |③-④-|
口⑤②口 |⑤---|
口①口⑥ |⑥---|
26
口口⑦④ |①-②-|
⑥③口口 |③-④-|
①口⑤① |--⑤-|
口口②口 |⑥-⑦-|
27
口①口④ |①---|
口③口② |②---|
①口④口 |③---|
③口②口 |④---|
28
①口①口 |①---|
口③口③ |--②-|
口①口① |③---|
③②③② |----|
29
①口②口 |①-②-|
③口④口 |③-④-|
口⑤⑥口 |⑤-⑥-|
口⑦口⑧ |⑦-⑧-|
30
口口⑦④ |①-②-|
⑥③口口 |③-④-|
①口⑤① |--⑤-|
口口②口 |⑥-⑦-|
31
口①口④ |①---|
口③口② |②---|
①口④口 |③---|
③口②口 |④---|
32
①口①口 |①---|
②③②③ |--②-|
口①口① |③---|
③口③口 |----|
33
②⑤②⑤ |①-②-|
口口口口 |--③-|
③③③③ |--④-|
④①④① |⑤---|
34
②口口③ |①---|
①①①① |--②-|
口②③口 |----|
口口口口 |③---|
35
口口口口 |--①-|
①口③② |----|
口口口口 |②---|
口①②③ |③---|
36
口②口① |①---|
③口口口 |--②-|
②口①口 |----|
口③口口 |③---|
37
②口③口 |--①-|
口口①口 |----|
口②口③ |②---|
口口口① |③---|
38
口⑦口④ |①-②-|
③口⑥口 |③-④-|
口⑦②口 |⑤-⑥-|
⑤①口口 |⑦---|
39
口口口口 |①-②-|
⑦③口⑥ |③-④-|
⑤口④② |⑤-⑥-|
口①⑧口 |⑦-⑧-|
40
⑤①口⑥ |①-②-|
口口②口 |③-④-|
⑤③口⑥ |⑤---|
口口口④ |⑥---|
41
④口口⑤ |①-②-|
②②③口 |--③-|
口④⑤口 |--④-|
①①③口 |⑤---|
42
口②口③ |①---|
口口口口 |--②-|
②口③口 |----|
①口口① |③---|
43
口口口口 |--①-|
①口③② |----|
口口口口 |②---|
口①②③ |③---|
44
口②口① |①---|
③口口口 |--②-|
②口①口 |----|
口③口口 |③---|
45
②口③口 |--①-|
口口①口 |----|
口②口③ |②---|
口口口① |③---|
46
口⑦口④ |①-②-|
③口⑥口 |③-④-|
口⑦②口 |⑤-⑥-|
⑤①口口 |⑦---|
47
口口口口 |①-②-|
⑦③口⑥ |③-④-|
⑤口④② |⑤-⑥-|
口①⑧口 |⑦-⑧-|
48
⑤①口⑥ |①-②-|
口口②口 |③-④-|
⑤③口⑥ |⑤---|
口口口④ |⑥---|
49
⑤口④口 |①-②-|
口③⑥口 |③-④-|
口⑤②口 |⑤---|
口①口⑥ |⑥---|
50
口口口口 |①---|
口口口口 |----|
①口口① |----|
口口口口 |----|
51
口口口口 |①---|
口①口口 |----|
口口口口 |----|
口口口口 |----|
52
口口口口 |①---|
口口①口 |----|
口口口口 |----|
口口口口 |----|
53
口口口口 |①---|
口口口口 |----|
口口①口 |----|
口口口口 |----|
54
口口口口 |①---|
口口口口 |----|
口①口口 |----|
口口口口 |----|
55
口口口口 |①---|
口①口口 |----|
口口口口 |----|
口口口口 |----|
56
口口口口 |①---|
口口①口 |----|
口口口口 |----|
口口口口 |----|
57
口口口口 |①---|
口口口口 |----|
口口①口 |----|
口口口口 |----|
58
①口口① |①---|
口口口口 |----|
口口口口 |----|
口口口口 |----|
59
口口口口 |①---|
口口口口 |----|
①口口① |----|
口口口口 |----|
60
口口口口 |①---|
①口口① |----|
口口口口 |----|
口口口口 |----|
61
口口口口 |①---|
口口口口 |----|
口口口口 |----|
①口口① |----|
62
口口口口 |①---|
①口口① |----|
口口口口 |----|
口口口口 |----|
63
口口口口 |①---|
口口口口 |----|
①口口① |----|
口口口口 |----|
64
①口口① |①---|
口口口口 |----|
口口口口 |----|
口口口口 |----|
65
口口口口 |①---|
口口口口 |----|
①口口① |----|
口口口口 |----|
66
⑤口口口 |①---|
①口④② |②---|
⑤③口口 |③-④-|
口口口口 |--⑤-|
67
口口口① |--①-|
口②③口 |--②-|
口④⑤① |--③-|
口②③口 |④-⑤-|
68
①口口① |----|
④②③口 |①---|
口口口口 |②-③-|
④口口口 |--④-|
69
口②③口 |--①-|
口④⑤① |--②-|
口②③口 |--③-|
口口口① |④-⑤-|
70
口口口口 |----|
④口口口 |①---|
①口口① |②-③-|
④②③口 |--④-|
71
④②③口 |--①-|
口口口① |--②-|
④②③口 |--③-|
口口口① |--④-|
72
口口口① |----|
口口口口 |①---|
口口口① |----|
口口口口 |----|
73
口口口口 |----|
口口口口 |----|
口口口口 |----|
口口口口 |----|
74
口②②口 |①-②-|
③④⑤⑥ |③-④-|
口口口口 |⑤-⑥-|
口①①⑦ |⑦---|
75
口②②口 |①-②-|
③④⑤⑥ |③-④-|
口口口口 |⑤-⑥-|
口①①⑦ |⑦---|
76
口②②口 |①-②-|
③④⑤⑥ |③-④-|
口口口口 |⑤-⑥-|
口①①⑦ |⑦---|
77
口②②口 |①-②-|
③④口口 |③-④-|
口⑦⑥⑤ |⑤-⑥-|
口①①口 |⑦---|
78
⑥②②⑥ |①-②-|
③④口口 |③-④-|
口口⑧⑦ |⑤-⑥-|
⑤①①⑤ |⑦-⑧-|
79
⑥②②⑥ |①-②-|
③④口口 |③-④-|
口口⑧⑦ |⑤-⑥-|
⑤①①⑤ |⑦-⑧-|
80
口口口口 |①---|
口口口口 |----|
①口口口 |----|
口①口口 |----|
81
④②⑤③ |①-②-|
口口口口 |--③-|
②④③⑤ |--④-|
口①①口 |--⑤-|
82
口④口口 |①-②-|
④②③⑤ |--③-|
口口⑤口 |--④-|
②①①③ |--⑤-|
83
①口口② |①---|
口口③口 |----|
①口口② |②---|
口口口口 |③---|
84
口①④口 |①-②-|
③⑦口⑥ |③-④-|
口⑤②口 |⑤-⑥-|
口口⑧口 |⑦-⑧-|
85
口②口③ |①---|
口口口口 |--②-|
②口③口 |----|
①口口① |③---|
86
口口口口 |--①-|
①口④② |----|
口口口③ |②-③-|
口①②④ |④---|
87
口②口① |①---|
③口口口 |--②-|
②口①口 |----|
口③口口 |③---|
88
②口③口 |--①-|
口口①口 |----|
口②口③ |②---|
口口口① |③---|
89
口⑤口④ |①-②-|
③口口⑥ |③-④-|
⑤口②口 |⑤---|
口①⑥口 |⑥---|
90
⑤口口口 |①-②-|
口③口⑥ |③-④-|
⑤口④② |⑤---|
口①⑥口 |⑥---|
91
⑤①口⑥ |①-②-|
口口②口 |③-④-|
⑤③口⑥ |⑤---|
口口口④ |⑥---|
92
④口口⑤ |①-②-|
②②③口 |--③-|
口④⑤口 |--④-|
①①③口 |⑤---|
93
口②口③ |①---|
口口口口 |--②-|
②口③口 |----|
①口口① |③---|
94
口口口口 |--①-|
①口④② |----|
口口口③ |②-③-|
口①②④ |④---|
95
口②口① |①---|
③口口口 |--②-|
②口①口 |----|
口③口口 |③---|
96
②口③口 |--①-|
口口①口 |----|
口②口③ |②---|
口口口① |③---|
97
口⑤口④ |①-②-|
③口⑥口 |③-④-|
⑤口②口 |⑤---|
口①口⑥ |⑥---|
98
口口口口 |①-②-|
⑤③口⑥ |③-④-|
口口④② |⑤---|
⑤①⑥口 |⑥---|
99
③①口④ |①---|
口口②口 |②---|
③①口④ |③---|
口口口② |④---|
100
⑤口④口 |①-②-|
口③⑥口 |③-④-|
口⑤②口 |⑤---|
口①口⑥ |⑥---|
101
口口⑦④ |①-②-|
⑥③口口 |③-④-|
①口⑤① |--⑤-|
口口②口 |⑥-⑦-|
102
口①口④ |①---|
口③口② |②---|
①口④口 |③---|
③口②口 |④---|
103
①口①口 |①---|
口③口③ |--②-|
口①口① |③---|
③②③② |----|
104
①口②口 |①-②-|
③口④口 |③-④-|
口⑤⑥口 |⑤-⑥-|
口⑦口⑧ |⑦-⑧-|
105
口口⑦④ |①-②-|
⑥③口口 |③-④-|
①口⑤① |--⑤-|
口口②口 |⑥-⑦-|
106
口①口④ |①---|
口③口② |②---|
①口④口 |③---|
③口②口 |④---|
107
①口①口 |①---|
②③②③ |--②-|
口①口① |③---|
③口③口 |----|
108
②⑤②⑤ |①-②-|
口口口口 |--③-|
③③③③ |--④-|
④①④① |⑤---|
109
②⑤②⑤ |①-②-|
口口口口 |--③-|
③③③③ |--④-|
④①④① |⑤---|
110
口口口口 |①---|
①①①① |----|
口口口口 |----|
口口口口 |----|


不確定度: 0

最終更新:2013年10月01日 21:04