Dance My Generation
ゴールデンボンバー

BASIC

Level: 2
BPM: 133
Notes: 211

1
口口口口 |----|
口口口口 |----|
口口口口 |----|
口口口口 |----|
2
口口口口 |----|
口口口口 |----|
口口口口 |----|
口口口口 |----|
3
口口口口 |①---|
口①口口 |----|
口口①口 |----|
口口口口 |----|
4
口口口口 |----|
口口口口 |----|
口口口口 |----|
口口口口 |----|
5
口口②口 |①---|
口①口口 |②---|
口口①口
口口口口

口口口口
口③口口
口口③口 |----|
口口口口 |③---|
6
口口口口 |----|
口口口口 |----|
口口口口 |----|
口口口口 |----|
7
口③②口 |①---|
口①口口 |②---|
口口①口 |③---|
口口口口 |----|
8
口口口口 |①---|
口口①③ |----|
口②口口 |②---|
口口口口 |③---|
9
口③②口 |①---|
口①口口 |②---|
口口①口 |③---|
口口口口 |----|
10
口口口口 |①---|
口口①③ |----|
口②口口 |②---|
口口口口 |③---|
11
口③②口 |①---|
口①口口 |②---|
口口①口 |③---|
口口口口 |----|
12
口口口口 |①---|
口口①③ |----|
口②口口 |②---|
口口口口 |③---|
13
口③②口 |①---|
口①口口 |②---|
口口①口 |③---|
口口口口 |----|
14
口口口① |①---|
口口②④ |②---|
口③口口 |③---|
口口口口 |④---|
15
口口口口 |①---|
①②口口 |----|
口口口口 |②---|
口口口口 |----|
16
口口口① |①---|
口口②口 |②---|
口③口口 |③---|
④口口口 |④---|
17
口口口口 |①---|
口口口口 |----|
口口②① |②---|
口口口口 |----|
18
口口口口 |①---|
①口口口 |②---|
口②口口 |③---|
口口③口 |----|
19
口口口口 |①---|
②①①② |----|
口口口口 |②---|
口口口口 |----|
20
口口口口 |①---|
口口①口 |②---|
口②口口 |③---|
③口口口 |----|
21
口口口口 |①---|
②①①② |----|
口口口口 |②---|
口口口口 |----|
22
①口口口 |①---|
口②口口 |②---|
口口③口 |③---|
口口口④ |④---|
23
口口口口 |①---|
①②口口 |----|
口口口口 |②---|
口口口口 |----|
24
口口口① |①---|
口口②口 |②---|
口③口口 |③---|
④口口口 |④---|
25
口口口口 |①---|
口口口口 |----|
口口②① |②---|
口口口口 |----|
26
口口口口 |①---|
①口口口 |②---|
口②口口
口口口口

口口口口
④口口④
口口口口 |③---|
口口③口 |④---|
27
口口口口 |①---|
②①①② |----|
口口口口 |②---|
口口口口 |----|
28
口口口口 |①---|
口口①口 |②---|
口②口口 |③---|
③口口口 |----|
29
口口口口 |①---|
②①①② |----|
口③③口 |②---|
口口口口 |③---|
30
口口口口 |①---|
口口口口 |----|
①口口① |----|
口口口口 |----|
31
口口口口 |----|
口口口口 |----|
口口口口 |①---|
口口①口 |----|
32
口口口口 |①---|
口口②口 |----|
口口①口 |②---|
口口口口 |----|
33
①口口① |----|
口口口口 |----|
口口口口 |①---|
口口口口 |----|
34
口口口口 |①---|
②①①② |②---|
④③③④ |③---|
口口口口 |④---|
35
口口口口 |①---|
口口口口 |----|
口②口口 |②---|
口①①口 |----|
36
口②口口 |①---|
口①口口 |----|
口口口口 |②---|
口口口口 |----|
37
口③③口 |①---|
②口口① |②---|
口④④口 |③---|
口④④口 |④---|
38
口口口口 |①---|
④②①③ |②---|
口口口口 |③---|
口口口口 |④---|
39
口①①口 |①--②|
口②②口 |--③-|
口③③口 |④---|
口④④口 |----|
40
③口②③ |①---|
口①口口 |----|
口口①口 |②---|
口口口口 |③---|
41
口口口口 |①---|
口口①口 |----|
口②口口 |②---|
口口口口 |----|
42
③口②③ |①---|
口①口口 |----|
口口①口 |②---|
口口口口 |③---|
43
口口口口 |①---|
口口①口 |----|
口②口口 |②---|
口口口口 |----|
44
③口②③ |①---|
口①口口 |----|
口口①口 |②---|
口口口口 |③---|
45
口口口口 |①---|
口口①口 |----|
口②口口 |②---|
口口口口 |----|
46
②口口② |①---|
③①口③ |----|
口口①口 |②---|
口口口口 |③---|
47
口口口口 |①---|
口口口口 |②---|
①口口① |----|
②口口② |----|
48
④③②④ |①---|
口①口口 |②---|
口口①口 |③---|
口口口口 |④---|
49
口口口口 |----|
口①②口 |①---|
口③①口 |②---|
口口口口 |③---|
50
④③②④ |①---|
口①口口 |②---|
口口①口 |③---|
口口口口 |④---|
51
口口口口 |----|
口①①口 |①---|
③口口③ |②---|
口②②口 |③---|
52
④③②④ |①---|
口①口口 |②---|
口口①口 |③---|
口口口口 |④---|
53
口口口口 |----|
口②①口 |①---|
口①②口 |②---|
口口口口 |----|
54
口口口口 |①---|
①②③① |----|
口③②口 |②---|
口口口口 |③---|
55
①口口② |①---|
口口口口 |②---|
口口口口 |----|
②口口① |----|
56
④口口④ |①---|
③口口③ |②---|
②口口② |③--④|
①口口① |----|
57
口口口口 |①---|
口①①口 |----|
口口口口 |----|
口口口口 |----|


不確定度: 0

最終更新:2013年10月17日 15:59