Clumsy thoughts
猫叉Master feat. *spiLa*

BASIC

Level: 3
BPM: 153
Notes: 235

1
口口口口 |----|
口口口口 |----|
口口口口 |----|
口口口口 |----|
2
口口口口 |①---|
口①②口 |----|
口口口口 |②---|
口口口口 |----|
3
口口口口 |①---|
口口口口 |----|
口②①口 |②---|
口口口口 |----|
4
口口口口 |①---|
口①②口 |----|
口口口口 |②---|
口口口口 |----|
5
口口口口 |①---|
口口口口 |----|
②①①② |②---|
口口口口 |----|
6
口口口口 |①---|
口②口口 |----|
口①口口 |②---|
口口口口 |----|
7
口口口口 |①---|
口口①口 |----|
口口②口 |②---|
口口口口 |----|
8
口口口口 |①---|
口②口口 |----|
口①口口 |②---|
口口口口 |----|
9
口口口口 |①---|
口口口口 |----|
②①①② |②---|
口口口口 |----|
10
口口口口 |①---|
①②②① |----|
口口口口 |②---|
口口口口 |----|
11
①②口口 |①---|
口口口口 |----|
口口口口 |②---|
口口口口 |----|
12
口口口口 |①---|
口口①② |----|
口口口口 |②---|
口口口口 |----|
13
口口②① |①---|
口口口口 |----|
口口口口 |②---|
口口口口 |----|
14
口口口口 |①---|
②①口口 |----|
口口口口 |②---|
口口口口 |----|
15
口口口口 |①---|
④④口③ |②---|
①口②② |③---|
口口口口 |④---|
16
①口②② |①---|
④④口③ |②---|
口口口口 |③---|
口口口口 |④---|
17
口口口口 |①---|
口③④口 |②---|
①口②② |③---|
口口口口 |④---|
18
口口口口 |①---|
①口口① |----|
口②②口 |②---|
口口口口 |----|
19
口口口口 |①---|
口口口口 |----|
口②口口 |②---|
口①口口 |----|
20
口②②口 |①---|
口①口口 |----|
口口口口 |②---|
口口口口 |----|
21
口口口口 |①---|
口口①口 |----|
口口②口 |②---|
口口口口 |----|
22
口口口口 |①---|
口口口口 |----|
口②②口 |②---|
口口①口 |----|
23
口口口口 |①---|
①②口口 |----|
口口口口 |②---|
口口口口 |----|
24
口口口口 |①---|
口口①口 |----|
口②②口 |②---|
口口口口 |----|
25
口口口口 |①---|
口口②① |----|
口口口口 |②---|
口口口口 |----|
26
口口口口 |①---|
口①口口 |----|
口②②口 |②---|
口口口口 |----|
27
口口口口 |①---|
口口口口 |----|
①②口口 |②---|
口口口口 |----|
28
口口口口 |①---|
口②②口 |----|
口口①口 |②---|
口口口口 |----|
29
口口口口 |①---|
口口口口 |----|
①②口口 |②---|
口口口口 |----|
30
口口口口 |①---|
口口①② |----|
口口口口 |②---|
口口口口 |----|
31
口口口口 |①---|
口口口口 |----|
口①②口 |②---|
口口口口 |----|
32
口口口口 |①---|
②②①① |----|
口口口口 |②---|
口口口口 |----|
33
口口口口 |①---|
口②口口 |----|
口①口口 |②---|
口口口口 |----|
34
口口口口 |①---|
口口口口 |②---|
口①②③ |③---|
口口口口 |----|
35
口口口口 |①---|
口口②口 |----|
口口①口 |②---|
口口口口 |----|
36
口口口口 |①---|
口口口口 |②---|
③②①口 |③---|
口口口口 |----|
37
口口口口 |①---|
口①口口 |----|
口②口口 |②---|
口口口口 |----|
38
口口口口 |①---|
口①②③ |②---|
口口口口 |③---|
口口口口 |----|
39
口口口口 |①---|
口口①口 |----|
口口②口 |②---|
口口口口 |----|
40
口口口口 |①---|
③②①口 |②---|
口口口口 |③---|
口口口口 |----|
41
口口口口 |①---|
口③④口 |②---|
②①口口 |③---|
口口口口 |④---|
42
口口口口 |①---|
口口④③ |②---|
口口①② |③---|
口口口口 |④---|
43
口口口口 |①---|
④③口口 |②---|
口②①口 |③---|
口口口口 |④---|
44
口口口口 |①---|
②口口② |----|
①口口① |②---|
口口口口 |----|
45
口口口口 |①---|
口③④口 |②---|
②①口口 |③---|
口口口口 |④---|
46
口口口口 |①---|
口口④③ |②---|
口口①② |③---|
口口口口 |④---|
47
口口口口 |①---|
口口口口 |----|
口①①口 |----|
口口口口 |----|
48
口口口口 |①---|
①①②② |----|
①①②② |②---|
口口口口 |----|
49
口口口口 |----|
口口口口 |----|
口口口口 |①---|
①②口口 |②---|
50
口口口口 |①---|
口口口口 |----|
口①①口
口口口口

口口口口
口口口口
口口③② |②---|
口口口口 |③---|
51
口口口口 |①---|
口口口口 |----|
口①②口 |②---|
口口口口 |----|
52
口口口口 |①---|
口①①口 |----|
口②②口 |②---|
口口口口 |----|
53
口口口口 |①---|
口口口口 |----|
②②口口 |②---|
口①①口 |----|
54
口口口口 |①---|
口口②口 |----|
口口①① |②---|
口口口口 |----|
55
口口口口 |①---|
口①口口 |----|
口②口口 |②---|
口口口口 |----|
56
口口口口 |①---|
①②口口 |----|
口口口口 |②---|
口口口口 |----|
57
口口口口 |①---|
口口①② |----|
口口口口 |②---|
口口口口 |----|
58
口口口口 |①---|
口②口口 |----|
口①①口 |②---|
口口口口 |----|
59
口①②口 |①---|
口口口口 |----|
口口口口 |②---|
口口口口 |----|
60
口口口口 |①---|
①口口① |----|
②口口② |②---|
口口口口 |----|
61
口口口口 |①---|
口口口口 |----|
口口口口 |②---|
①②口① |----|
62
口口口口 |①---|
口口口口 |----|
口①口口 |②---|
口口②口 |----|
63
口口口口 |①---|
口②②口 |----|
口口①口 |②---|
口口口口 |----|
64
口①①口 |①---|
口②口口 |----|
口口口口 |②---|
口口口口 |----|
65
口口口口 |①---|
口口②口 |----|
口①①口 |②---|
口口口口 |----|
66
口口口口 |①---|
口口④④ |②---|
①②③口 |③---|
口口口口 |④---|
67
口口口口 |①---|
口口口口 |②---|
④④口口 |③---|
口③②① |④---|
68
口口口口 |①---|
①②③口 |②---|
口口④④ |③---|
口口口口 |④---|
69
④④口口 |①---|
口口②① |②---|
③口口口 |③---|
口口口口 |④---|
70
口口口口 |①---|
①②③口 |②---|
口口④④ |③---|
口口口口 |④---|
71
口口口口 |①---|
口口口口 |②---|
④④口口 |③---|
口③②① |④---|
72
口口口口 |①---|
①②④④ |②---|
口口口口 |③---|
口口③口 |④---|
73
口①①口 |①---|
口②②口 |----|
口口口口 |②---|
口口口口 |----|
74
口③③口 |①---|
口口口口 |----|
①②②① |②---|
口口口口 |--③-|


不確定度: 0

最終更新:2014年02月17日 17:50