Clumsy thoughts
猫叉Master feat. *spiLa*

ADVANCED

Level: 8
BPM: 153
Notes: 545

1
口口口口 |----|
口口口口 |----|
口口口口 |----|
口口口口 |----|
2
口口①① |①---|
②口口口 |②---|
口口③③ |③---|
④口口口 |④---|
3
①①口口 |①---|
口口口② |②---|
③③口口 |③---|
口口口④ |④---|
4
口口①① |①---|
②口口口 |②---|
口口③③ |③---|
④口口口 |④---|
5
①口口① |①---|
②口口② |②---|
④口口④ |③---|
③口口③ |④---|
6
口口①① |①---|
②口口口 |②---|
口口③③ |③---|
④⑤口口 |④-⑤-|
7
口口口口 |①---|
①①口口 |②---|
③③口② |③---|
口口⑤④ |④-⑤-|
8
口口口口 |①---|
口口①① |②---|
②口③③ |③---|
④⑤口口 |④-⑤-|
9
①①①① |①---|
③口②口 |②---|
口④口口 |③---|
口口口口 |④---|
10
④口口④ |①---|
③口①③ |②---|
口口口② |③---|
口口口口 |④---|
11
口③④口 |①-②-|
⑦⑤⑧⑥ |③-④-|
①口口③ |⑤-⑥-|
口②⑦口 |⑦-⑧-|
12
②③④口 |①-②-|
⑦⑤⑧⑥ |③-④-|
①口③口 |⑤-⑥-|
口口⑦口 |⑦-⑧-|
13
口③②① |--①-|
⑦⑤⑥口 |②-③-|
②口④口 |④-⑤-|
⑥口口口 |⑥-⑦-|
14
⑧②口① |①-②-|
⑥口⑦③ |③-④-|
口③⑤口 |⑤-⑥-|
⑦④口口 |⑦-⑧-|
15
口②③口 |--①-|
⑥④⑦⑤ |②-③-|
①口口② |④-⑤-|
口口⑥口 |⑥-⑦-|
16
②③④口 |①-②-|
⑦⑤⑧⑥ |③-④-|
①口③口 |⑤-⑥-|
口口⑦口 |⑦-⑧-|
17
口③②① |--①-|
口口口口 |②-③-|
②②口口
口口口口

⑤口口⑦
口口⑥④
口口口口 |④-⑤-|
⑥口口口 |⑥-⑦-|
18
口口口口 |①---|
②口口口 |--②-|
①①①①
口口口口

口口③口
口④口口
口口⑤口 |③-④-|
口⑥口口 |⑤-⑥-|
19
口口③口 |①---|
④口①口 |--②-|
口②口口 |③---|
口口口口 |--④-|
20
口口口口 |①-②-|
⑥①④⑤ |③-④-|
⑤③②① |⑤---|
口口口口 |--⑥-|
21
口②口口 |①---|
口口口口 |--②-|
口口①③ |③---|
④口口口 |--④-|
22
口口③口 |①-②-|
口②⑤口 |③-④-|
口④①口 |⑤---|
口口⑥⑦ |⑥-⑦-|
23
口③口口 |①---|
口①④① |----|
口⑤②口 |②-③-|
口口口口 |④-⑤-|
24
①口口① |①---|
③口口③ |②---|
②口口② |③---|
口④④口 |④---|
25
口③口口 |①---|
口①口④ |--②-|
口口②口 |③---|
口口口口 |--④-|
26
口口口口 |①---|
④③口⑤ |②-③-|
①口②④ |④---|
口口口口 |--⑤-|
27
口口②口 |①---|
口口口口 |--②-|
③①口口 |③---|
口口口④ |--④-|
28
口③口口 |①-②-|
口口②口 |③---|
口①④口 |④---|
⑥⑤口口 |⑤-⑥-|
29
口口③口 |①---|
①④①口 |----|
口②⑤口 |②-③-|
口口口口 |④-⑤-|
30
①口口① |①---|
口③③⑤ |②---|
②口口② |③---|
口④④口 |④---⑤-|
31
口③口② |①---|
口口④口 |②---|
⑤①⑥口 |③-④-|
口口口口 |⑤-⑥-|
32
②②口口 |①---|
⑥口④⑤ |②---|
⑦口口口 |③-④-|
口①③③ |⑤-⑥⑦|
33
口口口② |①-②-|
口口④口 |③-④-|
口口口③
①口口口

口⑤口口
⑦口口口
口⑥口口 |⑤-⑥-|
⑧口⑤口 |⑦-⑧-|
34
②口①口 |①-②-|
口④口③ |③-④-|
口口口口
口口口口

⑦口口口
口口口口
⑥口⑤⑤ |⑤---|
口口口口 |⑥-⑦-|
35
口⑦④⑧ |①-②-|
口②口⑥ |③-④-|
口口③口 |⑤-⑥-|
口①口⑤ |⑦-⑧-|
36
②口②④ |①---|
口口①⑤ |②---|
口口口口 |③---|
口③口③ |--④⑤|
37
口⑥⑦口 |①-②-|
⑤口口⑧ |③-④-|
④口口① |⑤-⑥-|
口③②口 |⑦-⑧-|
38
口口口口 |①-②-|
口④②口 |③-④-|
口口③①
口口口口

口口⑦口
口口口⑥
口⑤口⑧ |⑤-⑥-|
口口口口 |⑦-⑧-|
39
③口口口 |①-②-|
⑦②①口 |③-④-|
口⑥⑤口 |⑤-⑥-|
口⑧口④ |⑦-⑧-|
40
口口②② |①---|
口口口口 |②---|
①口口口
口口口口

口口口口
口口口口
⑤口③③ |③---|
④口口口 |--④⑤|
41
口口口② |①-②-|
①口④口 |③-④-|
口口口③
口口口口

口⑤口口
⑦口口口
口⑥口口 |⑤-⑥-|
⑧口⑤口 |⑦-⑧-|
42
②口①口 |①-②-|
口④口③ |③-④-|
口口口口
口口口口

⑦口口口
口口口口
⑥口口⑤ |⑤---|
口口口口 |⑥-⑦-|
43
口⑦④⑧ |①-②-|
口②口⑥ |③-④-|
口口③口 |⑤-⑥-|
口①口⑤ |⑦-⑧-|
44
②口②④ |①---|
口口①⑤ |②---|
口口口口 |③---|
口③口③ |--④⑤|
45
口⑥⑦口 |①-②-|
⑤口口⑧ |③-④-|
④口口① |⑤-⑥-|
口③②口 |⑦-⑧-|
46
口口口口 |①-②-|
口④②口 |③-④-|
口口③①
口口口口

口口⑦口
口口口⑥
口⑤口⑧ |⑤-⑥-|
口口口口 |⑦-⑧-|
47
①①口口 |①---|
口②②口 |----|
口③③口 |----|
口口口口 |②-③-|
48
①口口① |①---|
③口口③ |②---|
②口口② |③---|
口④④口 |④---|
49
①②④③ |----|
口⑤口口 |--①-|
口口口口 |②-③-|
口口口口 |④-⑤-|
50
口口口口 |①---|
①口口① |②---|
口口口口
口口②口

口③口口
口口④⑤
口⑥口口 |③-④-|
口口口口 |⑤-⑥-|
51
④口②口 |①-②-|
①⑤口⑧ |③-④-|
口口⑥口 |⑤-⑥-|
口⑦③口 |⑦-⑧-|
52
口④口口 |①---|
⑤口③⑤ |②-③-|
①口口① |--④-|
口口②口 |⑤---|
53
口口口口 |----|
口⑤口④ |--①-|
②口③口 |②-③-|
口①口口 |④-⑤-|
54
①口口口 |①---|
口口口口 |②-③-|
⑦⑤③口 |④-⑤-|
口⑥④② |⑥-⑦-|
55
口口口口 |①---|
⑤口⑥口 |②-③-|
口④口③ |④-⑤-|
①口②口 |⑥---|
56
①②③口 |①-②-|
口⑥⑤④ |③-④-|
⑦⑧口口 |⑤-⑥-|
口口口口 |⑦-⑧-|
57
口口①口 |①---|
②口③口 |②-③-|
口口口④ |④---|
⑤口⑤口 |⑤---|
58
口①口① |①---|
③④口口 |②---|
口口⑥⑤ |③-④-|
⑤②③口 |⑤-⑥-|
59
口①口口 |----|
②⑤口③ |--①-|
口④口口 |②-③-|
口口口④ |④-⑤-|
60
口口口口 |①---|
口口口口 |--②-|
①口①口
口②②口

口③口③
口口口口
口④④口 |--③-|
口口口口 |④---|
61
口口口口 |----|
①②④③ |--①-|
口⑤口口 |②-③-|
口口口口 |④-⑤-|
62
口口①① |①---|
口口口口 |②-③-|
①⑥④② |④-⑤-|
口⑦⑤③ |⑥-⑦-|
63
口口口口 |①---|
②③⑤④ |--②-|
①⑥口口 |③-④-|
口口口口 |⑤-⑥-|
64
口口①① |①---|
口口口口 |②---|
①④口口 |③---|
②口③口 |④---|
65
口口口口 |①---|
口口②口 |②---|
③口口① |③-④-|
口口⑤④ |⑤---|
66
口口①① |①-②-|
②口③口 |③-④-|
④口⑤⑤ |⑤-⑥-|
⑥⑧口⑦ |⑦-⑧-|
67
①①口口 |①-②-|
口③口② |③-④-|
⑤⑤口④ |⑤-⑥-|
⑦口⑧⑥ |⑦-⑧-|
68
口口①① |①-②-|
②⑧③口 |③-④-|
④⑦⑤⑤ |⑤-⑥-|
⑥口口口 |⑦-⑧-|
69
口⑥口口 |--①-|
口⑤口③ |②-③-|
④口口② |--④-|
口口①口 |⑤-⑥-|
70
口口①① |①-②-|
②口③口 |③-④-|
④口⑤⑤ |⑤-⑥-|
⑥⑧口⑦ |⑦-⑧-|
71
①①口口 |①-②-|
口③口② |③-④-|
⑤⑤口④ |⑤-⑥-|
⑦口⑧⑥ |⑦-⑧-|
72
口口①① |①-②-|
②⑧③口 |③-④-|
④⑦⑤⑤ |⑤-⑥-|
⑥口口口 |⑦-⑧-|
73
②口⑤口 |①-②-|
④口⑦口 |③-④-|
③口⑥口 |--⑤-|
口口①口 |⑥-⑦-|
74
口口口④ |--①-|
①口⑤口 |②-③-|
③⑦⑦⑦ |④-⑤-|
②⑥⑥⑥ |⑥-⑦-|


不確定度: 0

最終更新:2014年02月17日 17:50