chaplet
DJ TOTTO

ADVANCED

Level: 9
BPM: 200
Notes: 678

1
口口口口 |----|
口口口口 |----|
口口口口 |----|
口口口口 |----|
2
口口口口 |----|
口口口口 |----|
口口口口 |----|
口口口口 |----|
3
口⑥⑦口 |①-②-|
⑧口口⑤ |③-④-|
①口口口 |⑤-⑥-|
①④③② |⑦-⑧-|
4
口⑧口③ |①-②-|
口④口⑦ |③-④-|
⑥口①口 |⑤-⑥-|
②口⑤口 |⑦-⑧-|
5
口口⑥口 |①-②-|
⑤口口⑧ |③-④-|
口⑦口① |⑤-⑥-|
②③④① |⑦-⑧-|
6
口③口⑥ |①-②-|
口⑤②口 |③-④-|
⑦口口口 |⑤-⑥-|
①口④⑧ |⑦-⑧-|
7
⑥口口口 |①-②-|
①⑧⑤口 |③-④-|
口④③② |⑤-⑥-|
①口⑦口 |⑦-⑧-|
8
口④⑦① |①-②-|
⑥口口口 |③-④-|
口口③⑤ |⑤-⑥-|
②⑧口口 |⑦-⑧-|
9
口⑤⑧口 |①-②-|
口口口① |③-④-|
②③④⑥ |⑤-⑥-|
⑦口口① |⑦-⑧-|
10
⑤⑤口口 |①-②-|
①口⑥② |③-④-|
口③口口 |⑤---|
口口口④ |--⑥-|
11
口口②② |①---|
口口口口 |----|
口口口口 |②---|
①①口口 |----|
12
③③口口 |①---|
口①口口 |②---|
口口②口 |③---|
口口口口 |----|
13
②②口口 |①---|
口口口① |----|
口口口① |②---|
口口口口 |----|
14
口口③③ |①---|
口口①口 |②---|
口②口口 |③---|
口口口口 |----|
15
口口②② |①---|
①口口口 |----|
①口口口 |②---|
口口口口 |----|
16
③③口口 |①---|
口①口口 |②---|
口口②口 |③---|
口口口口 |----|
17
②②口口 |①---|
口口口① |----|
口口口① |②---|
口口口口 |----|
18
口口③③ |①---|
口口①口 |②---|
口②口口 |③---|
口口口口 |----|
19
口口口口 |①---|
口口口口 |----|
①口口① |----|
①口口① |----|
20
口②④口 |①---|
②口口④ |②---|
①口口③ |③---|
口①③口 |④---|
21
②口口② |①---|
口④③口 |②---|
口⑥⑤口 |③-④-⑤-|
①⑧⑦① |⑥-⑦-⑧-|
22
口⑩⑦口 |①-②-③-|
④⑪⑧① |④-⑤-⑥-|
⑤⑫⑨② |⑦-⑧-⑨-|
⑥口口③ |⑩-⑪-⑫-|
23
②口口① |①---|
口口口口 |----|
口口口口 |②---|
口口口口 |----|
24
④④②② |①---|
口口口口 |②---|
口口口口 |③---|
③①③① |④---|
25
口⑫⑤⑨ |①-②-③-|
④⑧口① |④-⑤-⑥-|
⑥口③⑪ |⑦-⑧-⑨-|
⑩②⑦口 |⑩-⑪-⑫-|
26
口口口口 |①---|
②②①① |----|
口口口口 |②---|
口口口口 |----|
27
⑧②①⑦ |①-②-③-|
口口③⑨ |④-⑤-⑥-|
⑩④口口 |⑦-⑧-⑨-|
⑫⑥⑤⑪ |⑩-⑪-⑫-|
28
口口③口 |①---|
②②③口 |②---|
口④①① |③---|
口④口口 |④---|
29
①口口① |①---|
口④③口 |②---|
口⑥⑤口 |③-④-⑤-|
②⑧⑦② |⑥-⑦-⑧-|
30
口⑩⑦口 |①-②-③-|
④⑪⑧① |④-⑤-⑥-|
⑤⑫⑨② |⑦-⑧-⑨-|
⑥口口③ |⑩-⑪-⑫-|
31
②⑤⑥① |①---②-|
②口口① |--③---|
④⑥⑤③ |④---⑤-|
口④③口 |--⑥---|
32
口口口⑤ |①---|
②③④口 |--②-③-|
口口口口 |④---|
①口口① |⑤---|
33
⑤口口口 |①---|
口④③② |--②-③-|
①口口口 |④---|
口口口口 |⑤---|
34
⑧⑤口口 |①---|
口口④⑦ |②-③-④-|
⑥③口① |⑤---|
口口②口 |⑥-⑦-⑧-|
35
口⑩①⑦ |①-②-③-|
④②口⑪ |④-⑤-⑥-|
口⑧③⑤ |⑦-⑧-⑨-|
⑥⑫⑨口 |⑩-⑪-⑫-|
36
②口口口 |①---|
口口口口 |----|
口口口口 |②---|
口口口① |----|
37
⑦⑦口① |①---②-|
口口②⑥ |③-④-⑤-|
③⑤口⑥ |⑥---⑦-|
⑧⑧口④ |--⑧---|
38
口口口口 |①---|
口①②口 |----|
口②①口 |②---|
口口口口 |----|
39
⑧⑧④① |①---②-|
③口口⑥ |③-④-⑤-|
口口②⑥ |⑥---⑦-|
口⑤⑦⑦ |--⑧---|
40
口口口② |①---|
口口①口 |----|
口①④口 |----|
③口口口 |②-③-④-|
41
口①⑥⑧ |①-②-③-|
⑤口⑧② |④-⑤-⑥-|
⑦③口⑨ |⑦---⑧-|
口⑦⑨④ |--⑨---|
42
口口口口 |①---|
口①口口 |----|
口口①口 |----|
口口口口 |----|
43
②口口口 |①---|
口口②口 |----|
口口口① |②---|
口①口口 |----|
44
②口口口 |①---|
口口口口 |----|
口口口口 |②---|
口口口① |----|
45
⑦⑦口① |①---②-|
口口②⑥ |③-④-⑤-|
③⑤口⑥ |⑥---⑦-|
⑧⑧口④ |--⑧---|
46
口口口口 |①---|
口①②口 |----|
口②①口 |②---|
口口口口 |----|
47
⑧⑧④① |①---②-|
③口口⑥ |③-④-⑤-|
口口②⑥ |⑥---⑦-|
口⑤⑦⑦ |--⑧---|
48
口口口口 |①---|
口口①口 |----|
口①口② |----|
口③口口 |--②-③-|
49
⑧④①⑪ |①-②-③-|
⑫口⑦③ |④-⑤-⑥-|
②⑩⑤口 |⑦-⑧-⑨-|
⑥口口⑨ |⑩-⑪-⑫-|
50
②口口口 |①---|
口③口口 |----|
口口口① |----|
口口口口 |--②-③-|
51
口口口口 |①---|
口口口口 |----|
口口①口 |----|
口口口口 |----|
52
①口口① |①---|
口口①口 |----|
口口口口 |----|
口口口口 |----|
53
口口口口 |①---|
口口口口 |----|
①①口口 |----|
口口①口 |----|
54
口口口口 |①---|
口①口① |----|
口口口① |----|
口口口口 |----|
55
口口口口 |①---|
口②①② |----|
口口口口 |②---|
①①口② |----|
56
口①口口 |①---|
①口口口 |----|
口口口口 |----|
口口①口 |----|
57
口口口① |①---|
口口口口 |----|
①口①口 |----|
口口口口 |----|
58
口口口口 |①---|
①口口口 |----|
口①口口 |----|
口口①口 |----|
59
②口①② |①---|
口口口口 |----|
口口口① |②---|
口①口口 |----|
60
⑤口口口 |①-②-|
⑧⑦口③ |③-④-|
口⑥④口 |⑤-⑥-|
口口②① |⑦-⑧-|
61
口口③② |①-②-|
⑧口①口 |③-④-|
口⑥口④ |⑤-⑥-|
⑤⑦口口 |⑦-⑧-|
62
⑦口口口 |①-②-|
口⑥口② |③-④-|
⑧⑤①口 |⑤-⑥-|
口口④③ |⑦-⑧-|
63
口口①③ |①-②-|
⑥⑦口② |③-④-|
口⑤口④ |⑤-⑥-|
⑧口口口 |⑦-⑧-|
64
口⑥口口 |①-②-|
⑦口①③ |③-④-|
⑧⑤口④ |⑤-⑥-|
口口口② |⑦-⑧-|
65
口口①③ |①-②-|
口⑥④口 |③-④-|
⑧⑦②口 |⑤-⑥-|
⑤口口口 |⑦-⑧-|
66
⑧⑨⑩口 |①-②-|
⑤⑥⑦④ |③-④-|
口口①口 |⑤-⑥-⑦-|
口口③② |⑧-⑨-⑩-|
67
口口口① |①---|
口口口口 |----|
口口口口 |----|
口口口口 |----|
68
④③①② |①---|
③口口① |②---|
口口口口 |③---|
①②④③ |④---|
69
口⑧③⑪ |①---②-|
口④⑦口 |③-④-⑤-|
⑩①①⑤ |⑥-⑦-⑧-|
②⑥口⑨ |⑨-⑩-⑪-|
70
③口⑧⑫ |①-②-③-|
⑪⑦口④ |④-⑤-⑥-|
口①⑥⑩ |⑦-⑧-⑨-|
⑤⑨②口 |⑩-⑪-⑫-|
71
口口口口 |①---|
口口②口 |----|
口①口口 |②---|
口口口口 |----|
72
④③①② |①---|
③口口① |②---|
⑤口口口 |③---|
①②④③ |④---⑤-|
73
口⑩⑤口 |①-②-③-|
⑧⑫①③ |④-⑤-⑥-|
口②⑦⑪ |⑦-⑧-⑨-|
⑥④口⑨ |⑩-⑪-⑫-|
74
⑤⑧④① |①---|
口口口口 |②-③-④-|
口③⑦口 |⑤---|
口⑥②口 |⑥-⑦-⑧-|
75
⑩口⑦⑤ |①-②-③-|
⑩②⑨口 |④-⑤-⑥-|
⑧⑥口③ |⑦-⑧-⑨-|
④口口① |⑩---|
76
⑨⑩⑤④ |①-②-③-|
口口口口 |④---⑤-|
口⑥⑦⑧ |⑥-⑦-⑧-|
③②①口 |⑨---⑩-|
77
口口口③ |①---②-|
④②①⑤ |③-④-⑤-|
⑥口口⑨ |⑥-⑦-⑧-|
⑧⑩⑪⑦ |⑨-⑩-⑪-|
78
口①②③ |①-②-③-|
口④⑤⑥ |④-⑤-⑥-|
口⑦⑧⑨ |⑦-⑧-⑨-|
口⑩⑪⑫ |⑩-⑪-⑫-|
79
③⑤②② |①---②-|
口③⑤④ |--③---|
①⑥④口 |④---⑤-|
①口口⑥ |--⑥---|
80
口⑤⑤② |①---|
③口口口 |--②-③-|
口口口④ |④---|
口①①口 |⑤---|
81
②⑤⑤口 |①---|
口口口③ |--②-③-|
④口口口 |④---|
口①①口 |⑤---|
82
口口口④ |①---|
③口口⑥ |②-③-④-|
口⑤②口 |⑤---|
①⑦⑧① |⑥-⑦-⑧-|
83
①②③口 |①-②-③-|
④⑤⑥口 |④-⑤-⑥-|
⑦⑧⑨口 |⑦-⑧-⑨-|
⑩⑪⑫口 |⑩-⑪-⑫-|
84
②⑩⑦③ |①-②-③-|
④⑥⑨⑤ |④-⑤---|
口口口口 |⑥-⑦-⑧-|
⑧口口① |⑨-⑩---|
85
⑫⑪⑩④ |①-②-③-|
口口口⑤ |④-⑤-⑥-|
③②①⑥ |⑦-⑧-⑨-|
⑨⑧⑦口 |⑩-⑪-⑫-|
86
⑩口口口 |①-②-③-|
⑥②③⑤ |④-⑤---|
④口⑦口 |⑥-⑦-⑧-|
口⑧⑨① |⑨-⑩---|
87
⑩③②① |①-②-③-|
⑪口口④ |④-⑤-⑥-|
⑫口口⑤ |⑦-⑧-⑨-|
⑦⑧⑨⑥ |⑩-⑪-⑫-|
88
口④⑦① |①-②-③-|
⑩⑧口③ |④-⑤---|
口②口⑨ |⑥-⑦-⑧-|
口⑥口⑤ |⑨-⑩---|
89
④⑩⑦① |①-②-③-|
口口口口 |④-⑤-⑥-|
⑧⑫⑨⑪ |⑦-⑧-⑨-|
②⑥③⑤ |⑩-⑪-⑫-|
90
⑥口⑨① |①-②-③-|
②④口⑤ |④---⑤-|
口⑩口口 |⑥-⑦-⑧-|
口⑧③⑦ |⑨---⑩-|
91
⑧口⑪① |①-②-③-|
⑫⑥③⑨ |④-⑤-⑥-|
②口口⑤ |⑦-⑧-⑨-|
④⑩⑦口 |⑩-⑪-⑫-|
92
口口口口 |①---|
口口口口 |----|
口口口口 |----|
口口口① |----|

不確定度: 0

最終更新:2014年04月17日 15:00