caramel ribbon
P*Light

ADVANCED

Level: 9
BPM: 175
Notes: 655

1
口口口口 |----|
口口口口 |----|
口口口口 |----|
口口口口 |----|
2
口②②口 |①---|
②①①② |----|
口①①口 |----|
口口口口 |②---|
3
口口口④ |①---|
口口②口 |②-③-|
口③口⑤ |④---|
①口口① |⑤---|
4
口⑥口口 |①-②-|
口⑥⑤口 |③-④-|
口口⑤口 |⑤---|
④②①③ |⑥---|
5
口口口口 |----|
口口③口 |①-②-|
口⑥④② |③-④-|
口⑤口① |⑤-⑥-|
6
口④①① |①---|
②②⑤口 |②---|
口⑥③③ |③-④⑤|
口口口口 |⑥---|
7
①口②① |①---|
口③口口 |----|
口口口口 |----|
口口口口 |②-③-|
8
口①口口 |①-②-|
口口②口 |③---|
口口口③ |----|
口口口口 |----|
9
口④口口 |①---|
⑦⑤③口 |②-③-|
⑥口②口 |④-⑤-|
①口口① |⑥-⑦-|
10
口④④口 |①---|
④口口④ |②---|
口③③口 |③---|
②②①① |④---|
11
④口口① |①--②|
口②口口 |--③-|
④⑥口① |④--⑤|
口口⑤③ |--⑥-|
12
口④①口 |①--②|
④口⑤① |--③-|
口口③口 |④--⑤|
②⑥口口 |--⑥-|
13
口口①口 |①---|
口口口① |②---|
口口口②
口口②口

③口口③
⑤④④⑤
口口口口 |③--④|
口口口口 |--⑤-|
14
口④④口 |①--②|
④口口④ |--③-|
①③③② |----|
①口口② |④---|
15
④口口① |①--②|
口②口口 |--③-|
④⑥口① |④--⑤|
口口⑤③ |--⑥-|
16
口④①口 |①--②|
④口⑤① |--③-|
口口③口 |④--⑤|
②⑥口口 |--⑥-|
17
②④①⑤ |①--②|
④口口① |--③-|
口口口口 |④--⑤|
⑥口口③ |--⑥-|
18
口④④口 |①--②|
④①①④ |--③-|
②③③② |----|
口口口口 |④---|
19
①口口④ |①--②|
口②⑤口 |--③-|
⑥口口③ |④--⑤|
口④①口 |--⑥-|
20
④①②④ |①--②|
②口口① |--③-|
⑥③③⑤ |④--⑤|
口⑥⑤口 |--⑥-|
21
④①②③ |①---|
口口口口 |②---|
口③④口 |③--④|
②⑤⑤① |--⑤-|
22
口④④口 |①--②|
④①②④ |--③-|
②口口① |----|
③口口③ |④---|
23
①口口④ |①--②|
口②⑤口 |--③-|
⑥口口③ |④--⑤|
口④①口 |--⑥-|
24
④①②④ |①--②|
②口口① |--③-|
⑥③③⑤ |④--⑤|
口⑥⑤口 |--⑥-|
25
③①②③ |①--②|
⑤口口④ |--③-|
⑤口口④ |④--⑤|
②⑥⑥① |--⑥-|
26
口③③口 |①---|
口②①口 |②---|
口口口口 |③---|
②口口① |----|
27
③口口① |①-②-|
⑧⑦⑥⑤ |③-④-|
③⑩⑨① |⑤⑥⑦⑧|
口②④口 |⑨-⑩-|
28
③口口① |①-②-|
口⑦⑤口 |③-④-|
④口口② |⑤-⑥-|
口⑥⑧口 |⑦-⑧-|
29
④②①③ |①---|
②口口① |②---|
③口口④ |③---|
①③④② |④---|
30
口③①口 |①-②-|
④口口② |③-④-|
⑩③①⑨ |⑤⑥⑦⑧|
⑧⑦⑥⑤ |⑨-⑩-|
31
④③①② |①-②-|
③口口① |③-④-|
口⑩⑨口 |⑤⑥⑦⑧|
⑧⑦⑥⑤ |⑨-⑩-|
32
口⑥⑤口 |①-②-|
④②③① |③-④-|
⑧口口⑦ |⑤-⑥-|
口口口口 |⑦-⑧-|
33
③③口② |①---|
口①④② |②---|
④②③口 |③---|
④口①① |④---|
34
口②②口 |①---|
口⑥⑤口 |----|
口④③口 |②---|
口①①口 |③④⑤⑥|
35
⑦口口③ |①-②-|
②口口⑥ |③-④-|
⑤口口① |⑤-⑥-|
⑤⑧④① |⑦-⑧-|
36
⑦口⑤③ |①-②-|
②口口口 |③-④-|
⑤口⑥① |⑤-⑥-|
⑤⑧④① |⑦-⑧-|
37
⑦口口③ |①-②-|
②口口⑥ |③-④-|
⑤口口① |⑤-⑥-|
⑤⑧④① |⑦-⑧-|
38
⑦口⑤③ |①-②-|
②口口口 |③-④-|
⑤口⑥① |⑤-⑥-|
⑤⑧④① |⑦-⑧-|
39
口口口③ |①-②-|
②⑦⑦⑥ |③-④-|
⑤口口① |⑤-⑥-|
⑤口④① |⑦---|
40
口口口③ |①-②-|
②口口⑤ |③-④-|
⑤口口① |⑤---|
口口④① |----|
41
②②⑥⑥ |①-②-|
③③⑦⑦ |③-④-|
④④⑧⑧ |⑤-⑥-|
⑤①⑤① |⑦-⑧-|
42
①②②口 |①---|
②口口② |----|
口口口口 |----|
口口口① |②---|
43
口口口④ |①---|
口口②口 |②-③-|
口③口⑤ |④---|
①口口① |⑤---|
44
口⑥口口 |①-②-|
口⑥⑤口 |③-④-|
口口⑤口 |⑤---|
④②①③ |⑥---|
45
口口口口 |----|
口口③口 |①-②-|
口⑥④② |③-④-|
口⑤口① |⑤-⑥-|
46
口④①① |①---|
②②⑤口 |②---|
口⑥③③ |③-④⑤|
口口口口 |⑥---|
47
①③口① |①---|
口口口口 |----|
口口口口 |--②-|
④②口口 |③-④-|
48
口口②口 |----|
口③口口 |--①-|
口口④口 |②--③|
口口①口 |--④-|
49
口①口口 |①②③-|
口口②口 |----|
口③口口 |----|
口口口口 |----|
50
④④④④ |①---|
口口③口 |②---|
②②口口 |③---|
口①①① |④---|
51
口②②口 |①---|
①口口① |----|
口口口口 |----|
①口口① |--②-|
52
⑤④④② |①---|
口⑤②口 |--②-|
口口③口 |③--④|
口①①③ |--⑤-|
53
口口口口 |①---|
②口②口 |----|
口①口口 |----|
①口口口 |--②-|
54
口③②⑤ |①---|
口④④口 |--②-|
口①口① |③--④|
②⑤口③ |--⑤-|
55
①口口口 |①---|
口口口口 |----|
口口口口 |②---|
②口①② |----|
56
口口口口 |①---|
②口口② |----|
①口口① |②---|
口口口口 |----|
57
口④口口 |①---|
⑦⑤③口 |②-③-|
⑥口②口 |④-⑤-|
口①①口 |⑥-⑦-|
58
口④④口 |①---|
④口口④ |②---|
口③③口 |③---|
②②①① |④---|
59
①口口④ |①--②|
口②⑤口 |--③-|
⑥口口③ |④--⑤|
口④①口 |--⑥-|
60
④①②④ |①--②|
②口口① |--③-|
⑥③③⑤ |④--⑤|
口⑥⑤口 |--⑥-|
61
④①②③ |①---|
口口口口 |②---|
口③④口 |③--④|
②⑤⑤① |--⑤-|
62
口④④口 |①--②|
④①②④ |--③-|
②口口① |----|
③口口③ |④---|
63
①口口④ |①--②|
口②⑤口 |--③-|
⑥口口③ |④--⑤|
口④①口 |--⑥-|
64
④①②④ |①--②|
②口口① |--③-|
⑥③③⑤ |④--⑤|
口⑥⑤口 |--⑥-|
65
③⑤②⑥ |①--②|
②①④⑤ |--③-|
口⑥③口 |④--⑤|
④口口① |--⑥-|
66
口④④口 |①--②|
④口口④ |--③-|
口口②① |----|
③③②① |④---|
67
④⑤⑤① |①--②|
口②口口 |--③-|
④口口① |④---|
口⑥⑥③ |⑤-⑥-|
68
②④④① |--①-|
③②②① |--②-|
④③③④ |③---|
①口口口 |④---|
69
②口④① |①---|
口③口① |②---|
⑤口③⑤ |③--④|
①④②② |--⑤-|
70
③④④① |①--②|
④口①④ |--③-|
口②口口 |----|
②口口③ |④---|
71
④口口① |①--②|
口①④口 |--③-|
④⑤②① |④--⑤|
口③⑥口 |--⑥-|
72
④口口① |①--②|
口①④口 |--③-|
④⑤②① |④--⑤|
口③⑥口 |--⑥-|
73
⑩口③⑦ |①---|
口⑥口口 |②---|
④⑧①① |③④⑤⑥|
②②⑨⑤ |⑦⑧⑨⑩|
74
口⑤⑤口 |①-②-|
⑤口①⑤ |--③-|
④口①③ |--④-|
②②口口 |⑤---|
75
口口口口 |①---|
口口口口 |----|
口口口口 |----|
①①①① |----|

不確定度: 0

最終更新:2014年08月01日 22:33