caramel ribbon
P*Light

EXTREME

Level: 10
BPM: 175
Notes: 777

1
口口口口 |----|
口口口口 |----|
口口口口 |----|
口口口口 |----|
2
②①⑩⑩ |①②③④|
④③口⑨ |⑤⑥⑦⑧|
⑥⑤口⑨ |⑨---|
⑧⑦⑩⑩ |⑩---|
3
②④口口 |①---|
口①①口 |②-③-|
口口口口 |④---|
③⑤口⑤ |⑤---|
4
口⑥③⑥ |①-②-|
口口①④ |③-④-|
口口口② |⑤---|
⑤口⑤口 |⑥---|
5
口口④口 |①---|
①口⑥⑤ |②-③-|
①口口③ |④-⑤-|
口口⑦② |⑥-⑦-|
6
①口口① |①---|
口口口③ |②---|
④⑤口③ |③-④⑤|
②⑦⑥② |⑥-⑦-|
7
⑤①①④ |①---|
口②②口 |②---|
口③③口 |③---|
口④④口 |④-⑤-|
8
口①①口 |①-②-|
口③③口 |③---|
口④④口 |④---|
③⑤⑤② |⑤---|
9
③⑪⑧口 |①---|
①⑦④① |②-③-|
①⑤⑥① |④⑤⑥⑦|
口⑨⑩② |⑧⑨⑩⑪|
10
⑤⑩⑩① |①②③④|
⑥⑨⑨② |⑤⑥⑦⑧|
⑦口口③ |⑨---|
⑧⑩⑩④ |⑩---|
11
②⑥口① |①--②|
口口⑤① |③-④-|
口口⑦③ |⑤--⑥|
④口⑧口 |⑦-⑧-|
12
口⑧①② |①--②|
⑤①口口 |③-④-|
⑦③口口 |⑤--⑥|
口口⑥④ |⑦-⑧-|
13
③口口① |①---|
口口③① |②---|
口口⑤② |③--④|
②④口⑥ |⑤-⑥-|
14
口②⑥⑥ |①--②|
⑤①口口 |③-④-|
口③口口 |⑤---|
④口⑥⑥ |⑥---|
15
①⑥口口 |①--②|
口口⑤① |③-④-|
口口⑦③ |⑤--⑥|
④②口⑧ |⑦-⑧-|
16
口口①② |①--②|
口①口口 |③-④-|
口③口口
口口④口

口口⑧口
⑤口口口
⑦口口口 |⑤--⑥|
口口口⑥ |⑦-⑧-|
17
①口⑧⑥ |①--②|
口口⑤① |③-④-|
口口⑦③ |⑤--⑥|
②④口口 |⑦-⑧-|
18
②①⑩⑩ |①②③④|
④③口⑨ |⑤⑥⑦⑧|
⑥⑤口⑨ |⑨---|
⑧⑦⑩⑩ |⑩---|
19
①④口口 |①--②|
口③①口 |③-④-|
口口口口
口②口口

⑧口口口
⑦口口口
⑤⑤口口 |⑤--⑥|
⑥口口口 |⑦-⑧-|
20
口口④① |①--②|
口口③口 |③-④-|
口口口口
口①②口

口口口⑧
口口口⑦
口口⑤⑤ |⑤--⑥|
口口口⑥ |⑦-⑧-|
21
⑤①②⑤ |①---|
口③口口 |②---|
⑥口③⑥ |③--④|
④②①④ |⑤-⑥-|
22
口②⑤⑤ |①--②|
②④①③ |③-④-|
口①④口 |----|
口③⑤⑤ |⑤---|
23
①④口口 |①--②|
口③①口 |③-④-|
口口口口
口②口口

⑧口口口
⑦口口口
⑤⑤口口 |⑤--⑥|
⑥口口口 |⑦-⑧-|
24
口口④① |①--②|
口口③口 |③-④-|
口口口口
口①②口

口口口⑧
口口口⑦
口口⑤⑤ |⑤--⑥|
口口口⑥ |⑦-⑧-|
25
口口口口 |①--②|
③⑧④⑦ |③-④-|
①①⑤⑤ |⑤--⑥|
口⑥②口 |⑦-⑧-|
26
②③③① |①---|
口口口口 |②---|
④⑤⑥口 |③-④⑤|
②③③① |⑥---|
27
③口口① |①-②-|
口口口口 |③-④⑤|
口口口口
④⑤口②

口⑧⑫⑪
口口⑨口
口⑩⑦⑥ |⑥⑦⑧⑨|
口口口口 |⑩-⑪⑫|
28
④⑤⑨⑧ |①-②-|
⑦①⑥② |③-④⑤|
③口口口 |⑥-⑦⑧|
口口口⑩ |⑨-⑩-|
29
口⑫⑪⑩ |①②③-|
⑦⑧⑨口 |④⑤⑥-|
口⑥⑤④ |⑦⑧⑨-|
①②③口 |⑩⑪⑫-|
30
④口⑪口 |①②③④|
⑫⑧⑨③ |⑤-⑥⑦|
②⑩⑤⑦ |⑧⑨⑩⑪|
⑥口⑬① |⑫-⑬-|
31
④⑤口② |①-②-|
口口口口 |③-④⑤|
口口口口
③口口①

口口口口
口⑩⑦⑥
口口⑨口 |⑥⑦⑧⑨|
口⑧⑫⑪ |⑩-⑪⑫|
32
口口口⑩ |①-②-|
③口口口 |③-④⑤|
⑦①⑥② |⑥-⑦⑧|
④⑤⑨⑧ |⑨-⑩-|
33
①②③口 |①②③-|
口⑥⑤④ |④⑤⑥-|
⑦⑧⑨口 |⑦⑧⑨-|
口⑫⑪⑩ |⑩⑪⑫-|
34
②④⑤③ |①②③④|
口⑦⑥口 |⑤-⑥⑦|
口口口①
口口口口

口口口⑮
⑧口口⑬
⑪⑩⑨⑭ |⑧⑨⑩⑪|
口口口⑫ |⑫⑬⑭⑮|
35
①口②口 |①-②-|
口口口口 |③-④⑤|
口口口口
③⑤④口

⑪口口口
⑫⑨⑧口
口⑦⑥口 |⑥⑦⑧⑨|
口口口⑩ |⑩-⑪⑫|
36
口口②④ |①-②-|
⑨⑧⑦⑤ |③-④⑤|
①口口⑥ |⑥-⑦⑧|
口③⑩口 |⑨-⑩-|
37
③口口⑥ |①②③-|
⑩⑪⑧⑦ |④⑤⑥-|
口⑤②口 |⑦⑧⑨-|
④⑨⑫① |⑩⑪⑫-|
38
口②①⑤ |①②③④|
口口⑥口 |⑤-⑥⑦|
口④③口
⑦口口口

⑨⑬口口
口口口⑩
⑪口口⑧ |⑧⑨⑩⑪|
口口⑫口 |⑫-⑬-|
39
口⑨⑧口 |①-②-|
②⑦⑥⑩ |③-④⑤|
口⑤④⑩ |⑥⑦⑧⑨|
③口口① |⑩---|
40
口口口⑤ |①-②-|
①④④口 |③-④-|
①③③口 |⑤---|
口②②⑤ |----|
41
③口口⑨ |①②③-|
②④⑩⑧ |④⑤⑥-|
①⑤⑪⑦ |⑦⑧⑨-|
口⑥⑫口 |⑩⑪⑫-|
42
②①⑩⑩ |①②③④|
④③口⑨ |⑤⑥⑦⑧|
⑥⑤口⑨ |⑨---|
⑧⑦⑩⑩ |⑩---|
43
②④口口 |①---|
口①①口 |②-③-|
口口口口 |④---|
③⑤口⑤ |⑤---|
44
口⑥③⑥ |①-②-|
口口①④ |③-④-|
口口口② |⑤---|
⑤口⑤口 |⑥---|
45
口口④口 |①---|
①口⑥⑤ |②-③-|
①口口③ |④-⑤-|
口口⑦② |⑥-⑦-|
46
①口口① |①---|
口口口③ |②---|
④⑤口③ |③-④⑤|
②⑦⑥② |⑥-⑦-|
47
③①①③ |①---|
口口口口 |----|
④口口④ |--②-|
②④④② |③-④-|
48
口②②口 |----|
③口口③ |--①-|
④①①④ |②--③|
口口口口 |--④-|
49
①口口口 |①②③-|
口②口口 |----|
口口口口 |----|
口口③③ |----|
50
口口口④ |①---|
①口口④ |②---|
①②口④ |③---|
①②③④ |④---|
51
口①②口 |①---|
口口口② |----|
①口口口 |----|
②口口口 |--②-|
52
口①口② |①---|
①口口口 |--②-|
②口口口
口②口①

③口口口
⑤口口口
口口④③ |③--④|
④口③⑤ |--⑤-|
53
口口①口 |①②③-|
口口②① |----|
口③口口
口口口口

口口④口
口口口口
口口口口 |----|
口④口口 |--④-|
54
①②⑤③ |①---|
口⑤口口 |--②-|
口口④口 |③--④|
③④②① |--⑤-|
55
②口口③ |①---|
①口口口 |----|
②口④① |②---|
口口口口 |③-④-|
56
口①口口 |①-②-|
口④①口 |③---|
口①口② |④---|
口④③口 |----|
57
③⑪⑧口 |①---|
①⑦④① |②-③-|
①⑤⑥① |④⑤⑥⑦|
口⑨⑩② |⑧⑨⑩⑪|
58
⑤⑩⑩① |①②③④|
⑥⑨⑨② |⑤⑥⑦⑧|
⑦口口③ |⑨---|
⑧⑩⑩④ |⑩---|
59
口口口③ |①--②|
口④口① |③-④-|
口口口①
口口口②

口口⑦口
⑤口口⑧
口口⑤口 |⑤--⑥|
口口⑥口 |⑦-⑧-|
60
口③口口 |①--②|
④口①口 |③-④-|
口①口口
口②口口

⑦口口口
口⑤⑧口
⑤口口口 |⑤--⑥|
⑥口口口 |⑦-⑧-|
61
⑤②①⑤ |①---|
口③口口 |②---|
⑥口③⑥ |③--④|
④①②④ |⑤-⑥-|
62
口②⑤⑤ |①--②|
②④①③ |③-④-|
口①④口 |----|
口③⑤⑤ |⑤---|
63
③⑦口口 |①--②|
④⑤①⑧ |③-④-|
①⑤口口 |⑤--⑥|
②⑥口口 |⑦-⑧-|
64
口口③口 |①--②|
口④①口 |③-④-|
口口①口
口口②口

口口口⑦
⑤口⑧口
口口口⑤ |⑤--⑥|
口口口⑥ |⑦-⑧-|
65
口②②口 |①--②|
口口口口 |--③-|
口①①口
口③③口

口口口⑤
口口⑥⑤
④口⑥口 |④--⑤|
④口口口 |--⑥-|
66
②①⑩⑩ |①②③④|
④③口⑨ |⑤⑥⑦⑧|
⑥⑤口⑨ |⑨---|
⑧⑦⑩⑩ |⑩---|
67
⑤⑧⑧⑥ |①-②-|
⑧④③⑧ |③-④-|
口②①口 |⑤-⑥-|
口⑦⑦口 |⑦-⑧-|
68
②④④③ |--①-|
口口口口 |--②-|
①①①① |③---|
②④④③ |④---|
69
口⑨⑧⑦ |①②③-|
口③②① |④⑤⑥-|
④⑤⑥口 |⑦⑧⑨-|
⑩⑪⑫口 |⑩⑪⑫-|
70
②⑫口⑨ |①②③④|
⑥口⑤① |⑤⑥⑦⑧|
⑧④⑦⑪ |⑨⑩⑪⑫|
⑩⑭⑬③ |⑬-⑭-|
71
①⑤①⑤ |①--②|
⑤④⑧① |③-④-|
口⑦③口 |⑤--⑥|
⑥口口② |⑦-⑧-|
72
④口口⑧ |①--②|
⑤③⑦① |③-④-|
⑤⑥②① |⑤--⑥|
口⑤①口 |⑦-⑧-|
73
③口⑧⑦ |①--②|
口②⑥口 |③-④-|
④口口口 |⑤--⑥|
①⑤①⑤ |⑦-⑧-|
74
②①⑩⑩ |①②③④|
④③口⑨ |⑤⑥⑦⑧|
⑥⑤口⑨ |⑨---|
⑧⑦⑩⑩ |⑩---|
75
口口口口 |①---|
口①①口 |----|
口口口口 |----|
口口口口 |----|

不確定度: 0

最終更新:2014年08月01日 22:32