Broken
dj TAKA feat.AiMEE

BASIC

Level: 4
BPM: 148
Notes: 248

1
口口口口 |----|
口口口口 |----|
口口口口 |----|
口口口口 |----|
2
口①口口 |①---|
口口②口 |----|
口口口口 |②---|
口口口口 |----|
3
口口口口 |①---|
口口口口 |----|
口①口口 |②---|
口口②口 |----|
4
①口口口 |①---|
口口口② |----|
口口口口 |②---|
口口口口 |----|
5
口口口口 |①---|
口口口口 |----|
①口口口 |②---|
口口口② |----|
6
①口②口 |①---|
③口④口 |②---|
口口口口 |③---|
口口口口 |④---|
7
口口口口 |①---|
口口口口 |②---|
口①口② |③---|
口③口④ |④---|
8
口②口① |①---|
口④口③ |②---|
口口口口 |③---|
口口口口 |④---|
9
口口口口 |①---|
口口口口 |②---|
②口①口 |③---|
④口③口 |④---|
10
①①口口 |①---|
②口口口 |②---|
口④③口 |③---|
口口口口 |④---|
11
口口口口 |①---|
口③④口 |②---|
口口口② |③---|
口口①① |④---|
12
①②口口 |①---|
①口口口 |②---|
口④③口 |③---|
口口口口 |④---|
13
口口口口 |①---|
口③④口 |②---|
口口口① |③---|
口口②① |④---|
14
①口①② |①---|
④③口③ |②---|
口口口口 |③---|
口口口口 |④---|
15
口口口口 |①---|
口口口口 |②---|
①口①② |③---|
④③口③ |④---|
16
口口口口 |①---|
①③①③ |②---|
④②④② |③---|
口口口口 |④---|
17
①③①③ |①---|
口口口口 |②---|
口口口口 |③---|
④②④② |④---|
18
口口口口 |①---|
口①①口 |----|
口①①口 |----|
口口口口 |----|
19
口口口口 |----|
口口口口 |----|
口口口口 |----|
口口口口 |----|
20
口口口口 |----|
口口口口 |----|
口口口口 |----|
口口口口 |----|
21
口口口口 |----|
口口口口 |----|
口口口口 |----|
口口口口 |----|
22
口口口口 |①---|
①口口① |----|
①口口① |----|
口口口口 |----|
23
口口口口 |①---|
口口①口 |----|
口口口口 |----|
口口口口 |----|
24
口口口口 |①---|
口①口口 |----|
口口口口 |----|
口口口口 |----|
25
口口口口 |①---|
口口口口 |----|
口口①口 |----|
口口口口 |----|
26
口口口口 |①---|
口口口口 |----|
口①口口 |----|
口口口口 |----|
27
口口口口 |①---|
口口①口 |----|
口口口口 |----|
口口口口 |----|
28
口口口口 |①---|
口①口口 |----|
口口口口 |----|
口口口口 |----|
29
口口口口 |①---|
口口口口 |----|
口口①口 |----|
口口口口 |----|
30
①①口口 |①---|
口口②口 |②---|
口③口口 |③---|
口口④口 |④---|
31
口口①① |①---|
口②口口 |②---|
口口③口 |③---|
口④口口 |④---|
32
①①口口 |①---|
口口②口 |②---|
口③口口 |③---|
口口④口 |④---|
33
口口①① |①---|
口②口口 |②---|
口口③口 |③---|
口④口口 |④---|
34
口口口口 |①---|
口①①口 |②---|
②③④口 |③---|
口口口口 |④---|
35
口口口口 |①---|
口①①口 |②---|
口④③② |③---|
口口口口 |④---|
36
口口口口 |①---|
①口口① |----|
口口口口 |----|
口口口口 |----|
37
口①①口 |①---|
②口口② |②---|
口③③口 |③---|
④口口④ |④---|
38
口①①口 |①---|
②口口口 |②---|
口口③口 |③---|
口④口口 |④---|
39
口④口口 |①---|
口口③口 |②---|
②口口① |③---|
口口口① |④---|
40
口口①① |①---|
②口口口 |②---|
④口③口 |③---|
④口口口 |④---|
41
④④口口 |①---|
口口口③ |②---|
口②口口 |③---|
口口口① |④---|
42
口口①口 |①---|
口②口口 |②---|
口④口③ |③---|
口④口口 |④---|
43
④④口口 |①---|
口口③口 |②---|
②口口口 |③---|
口口口① |④---|
44
口口口口 |①---|
②口口① |--②-|
②口口① |----|
口③③口 |③---|
45
口口口口 |----|
口口口口 |----|
口口口口 |----|
口口口口 |----|
46
口口口① |①---|
口②口① |②---|
③口⑤口 |③---|
口④口口 |④-⑤-|
47
①口口口 |①---|
①口②口 |②---|
口⑤口③ |③---|
口口④口 |④-⑤-|
48
口口①① |①---|
②②口口 |----|
口口口口 |②---|
口口口口 |----|
49
口口口口 |①---|
口口口口 |----|
口口①① |②---|
②②口口 |----|
50
口口口口 |①---|
①口口① |----|
①口口① |----|
口口口口 |----|
51
口口口口 |----|
口口口口 |----|
口口口口 |----|
口口口口 |----|
52
口口口口 |①---|
口①①口 |----|
口①①口 |----|
口口口口 |----|
53
口口口口 |----|
口口口口 |----|
口口口口 |----|
口口口口 |----|
54
①①③③ |①---|
口④②口 |②---|
口口口口 |③---|
口口口口 |④---|
55
口口口口 |①---|
口口口口 |②---|
口①②口 |③-④-|
③④⑤⑥ |⑤-⑥-|
56
①①③③ |①---|
口②④口 |②---|
口口口口 |③---|
口口口口 |④---|
57
口口口口 |①---|
口口口口 |②---|
口①②口 |③-④-|
③④⑤⑥ |⑤-⑥-|
58
①③①③ |①---|
口②④口 |②---|
口口口口 |③---|
口口口口 |④---|
59
口口口口 |①---|
口口口口 |②---|
口①②口 |③-④-|
③④⑤⑥ |⑤-⑥-|
60
口口口口 |①---|
②①①② |②---|
④③③④ |③---|
口口口口 |④---|
61
①③③① |①---|
口口口口 |②---|
口口口口 |③---|
②④④② |④---|
62
口口口口 |①---|
口①①口 |----|
口①①口 |----|
口口口口 |----|

不確定度: 0

最終更新:2014年03月16日 15:34