Brand New World
VENUS

EXTREME

Level: 9
BPM: 157
Notes: 676

1
口口②① |----|
口口口口 |----|
口口⑥⑤ |--①②|
③④口口 |③④⑤⑥|
2
口口口口 |-①-②|
①口②② |--③-|
①口口口
口口③③

口口④④
口口口⑥
口口口⑥ |-④-⑤|
⑤⑤口口 |--⑥-|
3
①①③③ |-①-②|
④⑤②口 |---③|
④⑤②口 |-④-⑤|
口口⑥⑥ |-⑥--|
4
口口④④ |-①-②|
⑥⑤②③ |--③-|
⑥⑤②③ |-④-⑤|
①①口口 |--⑥-|
5
①①③③ |-①-②|
口口口口 |---③|
口口口口
口口②②

口口口口
⑤④口口
⑤④口口 |-④-⑤|
口口⑥⑥ |--⑥-|
6
②②⑤⑤ |-①-②|
⑥口口① |--③-|
⑥口口① |-④-⑤|
③③④④ |--⑥-|
7
①①⑥⑥ |-①-②|
④口口② |---③|
④口口② |-④--|
⑤⑤③③ |-⑤-⑥|
8
④④口口 |-①-②|
口①②⑥ |--③-|
口①②⑥ |-④-⑤|
⑤⑤③③ |--⑥-|
9
④口口④ |-①-②|
⑤①②⑤ |---③|
⑥②①⑥ |-④--|
③口口③ |-⑤⑥-|
10
口口④口 |①-②-|
口③口口 |③-④-|
口②口口
口口①口

口口口⑤
口口⑦口
⑥口口口 |⑤--⑥|
口口⑦口 |--⑦-|
11
③③③口 |①---|
口①口③ |②-③-|
口口口③ |----|
②①口③ |----|
12
口口口② |①---|
口①口口 |②-③-|
③①口口
口口口口

⑤口⑤口
口⑥口⑥
口⑥⑥⑥ |④--⑤|
口④⑥④ |--⑥-|
13
①口口② |----|
①口口② |----|
口口口口 |①---|
①①②② |②---|
14
③②①口 |①-②-|
④口⑧口 |③-④-|
⑤⑦⑥口 |⑤-⑥-|
口口口口 |⑦-⑧-|
15
③③口口 |①--②|
③①口口 |--③-|
口口口② |----|
口口②口 |----|
16
④③①② |①---|
口口口口 |②---|
⑤⑤⑤⑤ |③--④|
①④②③ |--⑤-|
17
①口口② |----|
①口口② |----|
口口口口 |①---|
①①②② |②---|
18
口①①口 |①--②|
口③③口 |--③-|
②⑤④② |--④-|
口口口⑥ |⑤-⑥-|
19
口④④口 |①--②|
口口口口 |--③-|
③口口③ |④---|
①②②口 |----|
20
①口口③ |①--②|
口①③口 |--③-|
口口②口
口口口②

⑤口口口
口口口口
口④口口 |--④-|
④口口⑥ |⑤-⑥-|
21
口①②口 |①-②-|
①⑤⑤② |③-④-|
④⑤⑤③ |⑤---|
口④③口 |----|
22
口口①口 |①--②|
④⑤③口 |--③-|
口口口口 |--④-|
口⑥口② |⑤-⑥-|
23
③口③口 |①--②|
口口口口 |--③-|
④②④② |④---|
①口①口 |----|
24
口口②③ |①---|
④⑤⑥① |②---|
口口③② |③-④-|
口口①口 |⑤-⑥-|
25
口口④口 |①--②|
⑤口口⑥ |--③-|
口③口口 |④-⑤⑥|
①口口② |----|
26
口①②② |①---|
口①①② |----|
口口①① |②---|
②口口口 |----|
27
口口②② |①---|
①口①② |----|
口①口口 |②---|
②①口口 |----|
28
①口②⑥ |①---|
口⑤口口 |②-③-|
③⑦口口 |④-⑤-|
口口④① |⑥-⑦-|
29
口口③口 |①-②-|
②⑥⑥口 |③-④-|
④⑦⑦口 |⑤-⑥-|
口口⑤① |⑦---|
30
①口②口 |①---|
⑤⑥口⑤ |②-③-|
③口⑥口 |④-⑤-|
口口④① |--⑥-|
31
口③③② |--①-|
④口①④ |②-③-|
④①口④ |④---|
②③③口 |----|
32
①口②⑥ |①---|
口⑤口口 |②-③-|
③⑦口口 |④-⑤-|
口口④① |⑥-⑦-|
33
口口③口 |①-②-|
②⑥⑥口 |③-④-|
④⑦⑦口 |⑤-⑥-|
口口⑤① |⑦---|
34
①③③① |①--②|
④⑥口④ |--③-|
⑤口⑥⑤ |--④-|
②口口② |⑤-⑥-|
35
口③③② |--①-|
口口①口 |②-③-|
口①口口 |----|
②③③口 |----|
36
⑥②口① |①---|
口口⑤口 |②-③-|
口口⑦③ |④-⑤-|
①④口口 |⑥-⑦-|
37
口③口口 |①-②-|
口⑥⑥② |③-④-|
口⑦⑦④ |⑤-⑥-|
①⑤口口 |⑦---|
38
①③③① |①--②|
④⑥口④ |--③-|
⑤口⑥⑤ |--④-|
②口口② |⑤-⑥-|
39
口③③② |--①-|
④口①④ |②-③-|
④①口④ |④---|
②③③口 |----|
40
⑥②口① |①---|
口口⑤口 |②-③-|
口口⑦③ |④-⑤-|
①④口口 |⑥-⑦-|
41
口③口口 |①-②-|
口⑥⑥② |③-④-|
口⑦⑦④ |⑤-⑥-|
①⑤口口 |⑦---|
42
①口口① |①--②|
口③③口 |--③-|
口口口口
②口口②

⑥口口口
④口口④
⑤口口⑤ |--④-|
⑥口口口 |⑤-⑥-|
43
口①②③ |①-②-|
④④④④ |③-④-|
⑤⑥⑦口 |--⑤-|
口①②③ |⑥-⑦-|
44
①口口⑥ |①-②-|
口④③② |③-④-|
口口口口 |⑤--⑥|
⑦口口⑤ |--⑦-|
45
①④④③ |①--②|
口口口口 |--③-|
口口口口 |--④-|
口⑤⑤② |⑤---|
46
⑤口口口 |①---|
⑤④口口 |--②③|
口口③② |④---|
①口口① |⑤---|
47
口口③③ |①--②|
口口口口 |--③-|
①②口口 |----|
①②口口 |----|
48
①口口口 |①---|
口①④⑤ |--②③|
②③口⑤ |④--⑤|
⑥⑥口口 |--⑥-|
49
口口③③ |①--②|
①①口口 |--③-|
口口口口
口口②②

④口口口
口⑤口口
口口⑥口 |----|
口口口⑦ |④⑤⑥⑦|
50
口口口⑤ |①---|
口口④⑤ |--②③|
②③口口 |④---|
①口口口 |⑤---|
51
①②口口 |①--②|
③口口口 |--③-|
口④④③ |----|
口口②① |④---|
52
口口口口 |----|
口口口口 |----|
口口口口 |----|
口口口口 |----|
53
口口口口 |----|
口口口口 |----|
口口口口 |----|
口口口口 |----|
54
口口口口 |----|
口口口口 |----|
口口口口 |----|
口口口口 |----|
55
口口口口 |----|
口口口口 |----|
口口口口 |----|
口口口口 |----|
56
①口口① |①-②-|
③④⑤⑥ |③④⑤⑥|
口口口口
口②②口

口口口口
口口口口
⑦口⑧口 |⑦-⑧-|
⑨口⑩口 |⑨-⑩-|
57
①②口③ |①②-③|
④⑤⑥⑦ |④⑤⑥⑦|
⑧口⑨口 |⑧-⑨-|
⑩口⑪口 |⑩-⑪-|
58
①口②口 |①-②-|
③④⑤⑥ |③④⑤⑥|
⑦口⑧口 |⑦-⑧-|
⑨口⑩口 |⑨-⑩-|
59
①②口③ |①②-③|
④⑤⑥⑦ |④⑤⑥⑦|
⑧口⑨口 |⑧-⑨-|
⑩⑪口⑫ |⑩⑪-⑫|
60
①口②口 |①-②-|
③④⑤⑥ |③④⑤⑥|
⑦口⑧口 |⑦-⑧-|
⑨口⑩⑪ |⑨-⑩⑪|
61
①②③口 |①②③-|
④口⑤⑥ |④-⑤⑥|
⑦口⑧⑨ |⑦-⑧⑨|
⑩口⑪⑫ |⑩-⑪⑫|
62
①口②口 |①-②-|
③口④⑤ |③-④⑤|
⑥口⑦口 |⑥-⑦-|
⑧口⑨口 |⑧-⑨-|
63
①②③口 |①②③-|
④口⑤口 |④-⑤-|
⑥⑦⑧⑨ |⑥⑦⑧⑨|
⑩⑪⑫口 |⑩⑪⑫-|
64
口口口口 |----|
口口口口 |----|
口口口口 |----|
口口口口 |----|
65
③⑤④② |①-②-|
口①①口 |-③--|
口⑥⑥口 |④--⑤|
③⑤④② |--⑥-|
66
①口口口 |-①-②|
口口②口 |--③-|
①口口②
口口③③

口口口④
口④口⑥
口⑤口⑥ |-④-⑤|
⑤口口口 |--⑥-|
67
①③口③ |-①-②|
口口②口 |---③|
口口②口
口口①口

口口口口
④⑤口⑤
④口口口 |-④-⑤|
口口⑥⑥ |-⑥--|
68
口②口口 |-①-②|
口口口③ |--③-|
口口②③
①①口口

口口④④
⑥⑤口口
口⑤口口 |-④-⑤|
⑥口口口 |--⑥-|
69
①①③③ |-①-②|
口口口口 |---③|
口口②口
口口口②

口口口口
⑤④⑤口
口口口口 |-④-⑤|
口④⑥⑥ |--⑥-|
70
②②⑤口 |-①-②|
⑥⑤口① |--③-|
⑥①③口 |-④-⑤|
③口④④ |--⑥-|
71
①①口口 |-①-②|
口口②口 |---③|
口口口②
口口③③

口口口⑥
④口口口
④口口⑥ |-④--|
⑤⑤口口 |-⑤-⑥|
72
④口④口 |-①-②|
口①②口 |--③-|
⑥①②⑥ |-④-⑤|
⑤⑤③③ |--⑥-|
73
口④④口 |-①-②|
⑤①②⑤ |---③|
⑥②①⑥ |-④--|
⑦③③⑦ |⑤⑥⑦-|

不確定度: 0

最終更新:2014年03月16日 15:32