以心伝心
Little Blue boX

ADVANCED

Level: 7
BPM: 220
Notes: 495

1
口口口口 |------|
口口口口 |------|
口口口口 |------|
口口口口 |------|
2
口⑤口口 |①-----|
③口口④ |②-----|
口①①口 |③---④-|
口②②口 |----⑤-|
3
口口①口 |①---②-|
口②③口 |③---④-|
口口口口 |------|
④口口口 |------|
4
口⑤口口 |①-----|
③口口④ |②-----|
口①①口 |③---④-|
口②②口 |----⑤-|
5
口口①口 |①---②-|
口②③口 |③---④-|
口口口口 |------|
④口口口 |------|
6
口⑤口口 |①-----|
③口口④ |②-----|
口①①口 |③---④-|
口②②口 |----⑤-|
7
口口①口 |①---②-|
口②③口 |③---④-|
口口口口 |------|
④口口口 |------|
8
①口口② |①-----|
①口口② |②-----|
口③④口 |③-----|
口③④口 |④-----|
9
②①①② |①-----|
口口口口 |②-----|
④口口④ |③-----|
③口口③ |④-----|
10
口口口口 |①-----|
④①①④ |②-----|
口②②口 |③-----|
口③③口 |----④-|
11
口②③口 |----①-|
口口口口 |----②-|
①口口① |③-----|
口口口口 |------|
12
口口口口 |①-----|
①④④① |②-----|
②口口② |③-----|
③口口③ |----④-|
13
口②③口 |----①-|
口口口口 |----②-|
④①①④ |③-----|
口口口口 |④-----|
14
口口口口 |①-----|
④①①④ |②-----|
口②②口 |③-----|
口③③口 |----④-|
15
口②③口 |----①-|
口口口口 |----②-|
①口口① |③-----|
口口口口 |------|
16
口口口口 |①-----|
①④④① |②-----|
②口口② |③-----|
③口口③ |----④-|
17
口②③口 |----①-|
口口口口 |----②-|
④①①④ |③-----|
口口口口 |④-----|
18
口口口口 |①-----|
④①①④ |②-----|
口②②口 |③-----|
口③③口 |----④-|
19
口②③口 |----①-|
口口口口 |----②-|
①口口① |③-----|
口口口口 |------|
20
口口口口 |①-----|
①④④① |②-----|
②口口② |③-----|
③口口③ |----④-|
21
口②③口 |----①-|
口口口口 |----②-|
④①①④ |③-----|
口口口口 |④-----|
22
口口口口 |①-----|
④①①④ |②-----|
口②②口 |③-----|
口③③口 |----④-|
23
口②③口 |----①-|
口口口口 |----②-|
①口口① |③-----|
口口口口 |------|
24
口口口口 |①-----|
①④④① |②-----|
②口口② |③-----|
③口口③ |----④-|
25
口②③口 |----①-|
④口口⑤ |----②-|
⑥①①口 |③---④-|
口口口口 |⑤---⑥-|
26
口口口口 |①-----|
口②②口 |②-----|
口④④① |③-----|
口③③口 |④-----|
27
②口口② |①-----|
①③口① |----②-|
口口口口 |------|
口口口口 |----③-|
28
口口口口 |①---②-|
④口①④ |③-----|
口②③口 |④-----|
⑤口口⑤ |⑤-----|
29
②口口② |①-----|
③①①口 |----②-|
口口口口 |------|
口口口口 |----③-|
30
口口口口 |①-----|
口③③① |②-----|
④②②④ |③-----|
口口口口 |④-----|
31
②③③② |①-----|
④口口口 |----②-|
口口口口 |----③-|
口①①口 |----④-|
32
口口口口 |①-----|
口口口① |------|
口口口口 |②-----|
口②②口 |------|
33
②③④② |①-----|
口⑤口口 |----②-|
口①①口 |----③-|
口口口口 |④---⑤-|
34
口口口口 |①-----|
口口①口 |②-----|
③口口③ |③-----|
②④④② |④-----|
35
口口口口 |①-----|
②③口② |----②-|
口①①口 |------|
口口口口 |----③-|
36
口口口口 |①-----|
③口①③ |②-----|
②口口② |③-----|
④口口④ |④-----|
37
口②③口 |①-----|
④②③口 |②---③-|
口①①口 |------|
口口口口 |----④-|
38
口口口口 |①-----|
口③③① |②-----|
④②②④ |③-----|
口口口口 |④-----|
39
④②②④ |①-----|
口口口口 |----②-|
口③③口 |----③-|
口①①口 |----④-|
40
口口口口 |------|
口口口口 |------|
口口口口 |------|
口口口口 |------|
41
①口口口 |------|
口②口口 |------|
口口口口 |①-----|
口口口口 |②-----|
42
口口②口 |①-----|
口口口口 |------|
①口口口 |------|
口口口口 |②-----|
43
口口口① |①-----|
口口②口 |②-----|
口④④③ |③-----|
口口口口 |④-----|
44
口①①口 |①-----|
口口口口 |------|
②口口② |------|
口口口口 |②-----|
45
口口口口 |①-----|
③口口口 |------|
口②口口 |②-----|
①口口① |③-----|
46
口①②口 |①-----|
口口口口 |------|
口口口口 |------|
口口口口 |②-----|
47
口口口口 |①-----|
口口口① |②-----|
④口②④ |③-----|
③口口③ |④-----|
48
②口口② |①-----|
①口口① |②-----|
口口口口 |------|
口口口口 |------|
49
口口口① |------|
口口②口 |------|
口口口口 |①-----|
口口口口 |②-----|
50
口②口口 |①-----|
口口口口 |------|
口口口① |------|
口口口口 |②-----|
51
①口口口 |①-----|
口②口口 |②-----|
③④④口 |③-----|
口口口口 |④-----|
52
口①①口 |①-----|
口口口口 |------|
②口口② |------|
口口口口 |②-----|
53
口口口口 |①-----|
口口口口 |------|
口③③口 |②-----|
①②②① |③-----|
54
口②②口 |①-----|
③①①③ |②-----|
口口口口 |------|
口口口口 |③-----|
55
②口口② |①-----|
口口口口 |②-----|
①③③① |------|
口口口口 |③-----|
56
口①①口 |①-----|
②①①口 |------|
口②口口 |------|
口口口口 |②-----|
57
口口口口 |①-----|
口②②① |------|
口口①口 |②-----|
口③③口 |③-----|
58
①口口① |①-----|
②口口② |------|
口口口口 |------|
口口口口 |②-----|
59
口②②口 |①-----|
④口口④ |②-----|
口③③口 |③-----|
①口口① |④-----|
60
①口口① |①-----|
口②②口 |------|
口口口口 |②-----|
口口口口 |------|
61
口口口口 |①-----|
口口口口 |------|
①口口① |②-----|
口②②口 |------|
62
①②③④ |①-----|
①②③④ |②-----|
口口口口 |③-----|
口口口口 |④-----|
63
口口口口 |------|
口口口口 |------|
口口口口 |------|
口口①① |①-----|
64
③③④④ |①-----|
口口②② |②-----|
①①口口 |③-----|
口口口口 |④-----|
65
口口口口 |①-----|
①①口口 |------|
口口口口 |②-----|
口②②口 |------|
66
①口口① |①-----|
②①①② |------|
口口口口 |------|
口口口口 |②-----|
67
口②②口 |①-----|
④口口④ |②-----|
口③③口 |③-----|
①口口① |④-----|
68
①口口① |①-----|
口②②口 |------|
口口口口 |②-----|
口口口口 |------|
69
口口口口 |①-----|
口口口口 |------|
①口口① |②-----|
口②②口 |------|
70
④③②① |①-----|
④③②① |②-----|
口口口口 |③-----|
口口口口 |④-----|
71
口口口口 |------|
口口口口 |------|
口口口口 |------|
①①口口 |①-----|
72
④④③③ |①-----|
②②口口 |②-----|
口口①① |③-----|
口口口口 |④-----|
73
口口口口 |①-----|
口口①① |------|
口口口口 |②-----|
口②②口 |------|
74
①①③③ |①-----|
②②口口 |------|
口口口口 |②-----|
口口口口 |③-----|
75
口口口口 |------|
口口①① |------|
口②②口 |①-----|
口口口口 |②-----|
76
口③口口 |------|
①③口口 |①-----|
①口③口 |②-----|
②②口口 |③-----|
77
口口口① |①-----|
口口口① |------|
口口口口 |②-----|
口②②口 |------|
78
①①③③ |①-----|
②②口口 |------|
口口口口 |②-----|
口口口口 |③-----|
79
口口口口 |------|
口口①① |------|
口②②口 |①-----|
口口口口 |②-----|
80
①①②② |------|
口口口口 |①-----|
口③口口 |②-----|
③③口口 |③-----|
81
口口口口 |①-----|
口口口口 |------|
②口口② |②-----|
口口①① |------|
82
口口口口 |①-----|
④①①④ |②-----|
口②②口 |③-----|
口③③口 |----④-|
83
口②③口 |----①-|
口口口口 |----②-|
①口口① |③-----|
口口口口 |------|
84
口口口口 |①-----|
①④④① |②-----|
②口口② |③-----|
③口口③ |----④-|
85
口②③口 |----①-|
口口口口 |----②-|
口①①口 |③-----|
口口口口 |------|
86
口口口口 |①-----|
④①①④ |②-----|
口②②口 |③-----|
口③③口 |----④-|
87
口②③口 |----①-|
口口口口 |----②-|
①口口① |③-----|
口口口口 |------|
88
口口口口 |①-----|
①口口① |②-----|
②口口② |③-----|
③口④③ |----④-|
89
⑧①②⑧ |①-②-③-|
口③④口 |④-⑤-⑥-|
口⑤⑥口 |⑦-----|
口⑦口口 |⑧-----|


不確定度: 0

タグ:

+ タグ編集
  • タグ:

このサイトはreCAPTCHAによって保護されており、Googleの プライバシーポリシー利用規約 が適用されます。

最終更新:2013年04月07日 23:42