LANA - セカイノハズレ -
TOMOSUKE×Jazzin'park

EXTREME

Level: 8
BPM: 214
Notes: 482

1
口口口口 |------|
口口口口 |------|
口口口口 |------|
口口口口 |------|
2
①口口② |①-----|
口口口口 |②-----|
口口口口 |③-----|
④口口③ |④-----|
3
口②口口 |①-----|
口①口口 |----②-|
③口①④ |----③-|
口口口口 |④-----|
4
②口口① |①-----|
口口口口 |②-----|
口口口口 |③-----|
③口口④ |④-----|
5
口口②口 |①-----|
口口①口 |----②-|
④①口③ |----③-|
口口口口 |④-----|
6
口口口口 |①-----|
①口口② |②-----|
口口口口 |③-----|
④口口③ |④-----|
7
口②口口 |①-----|
③①口④ |----②-|
口口①口 |----③-|
口口口口 |④-----|
8
②口口① |①-----|
口口口口 |②-----|
③口口④ |③-----|
口口口口 |④-----|
9
口口②口 |①-----|
④口①③ |----②-|
口①口口 |----③-|
口口口口 |④-----|
10
①口口② |①-----|
口口口口 |②-----|
口口口口 |③-----|
④口口③ |④-----|
11
口②口口 |①-----|
③①口④ |----②-|
口口①口 |----③-|
口口口口 |④-----|
12
口口口口 |①-----|
口②②口 |------|
口①①口 |②-----|
口口口口 |------|
13
口①①口 |①-----|
口口口口 |----②-|
②口口② |------|
口口口口 |------|
14
口⑦口口 |----①-|
口⑤⑥口 |②---③-|
口③④口 |④---⑤-|
口①②口 |⑥---⑦-|
15
③口①口 |①---②-|
口⑥口口 |----③-|
②④⑤口 |----④-|
口口口口 |⑤---⑥-|
16
口②②口 |①-----|
口口①口 |②-----|
③口口③ |③-----|
口④④口 |④-----|
17
②口口③ |①---②-|
口④④口 |----③-|
口①①口 |------|
口口口口 |④-----|
18
口③口口 |①-----|
口口口口 |------|
口口口② |------|
口①①口 |②---③-|
19
口口①口 |①-----|
③口口③ |----②-|
口口口口 |------|
口②②口 |③-----|
20
口口口口 |①-----|
口②②口 |------|
口①①口 |②-----|
口口口口 |------|
21
①口口① |①-----|
口②口口 |------|
口口③口 |------|
口口口口 |②---③-|
22
②口口② |①-----|
口口口口 |②-----|
③①口③ |③-----|
④口口④ |④-----|
23
口②②口 |①-----|
口①①口 |------|
口口口口 |②-----|
口口口口 |------|
24
⑥⑧口⑦ |①---②-|
①口口① |③---④-|
①口口① |⑤---⑥-|
④②③⑤ |⑦---⑧-|
25
口口①口 |①-----|
口口口口 |----②-|
口②②口 |------|
口口口口 |------|
26
口⑧口口 |①---②-|
口⑥⑦口 |③---④-|
①④⑤① |⑤---⑥-|
口②③口 |⑦---⑧-|
27
③口①口 |①---②-|
口⑥口口 |----③-|
②④⑤口 |----④-|
口口口口 |⑤---⑥-|
28
口③④口 |①-----|
口口①口 |②---③-|
口⑦口② |④---⑤-|
口⑤⑥口 |⑥---⑦-|
29
②口口③ |①---②-|
口④④口 |----③-|
口口①口 |------|
口口口口 |④-----|
30
④口口口 |①-----|
口口口口 |②-----|
②口口③ |③-----|
②①①③ |④-----|
31
口口口① |①-----|
③口口③ |----②-|
口口口口 |------|
口②②口 |③-----|
32
口口口口 |①-----|
口②②口 |------|
口①①口 |②-----|
口口口口 |------|
33
①④口① |①-----|
口口口口 |----②-|
口②②口 |------|
口口口③ |③---④-|
34
②口①② |①-----|
③口③口 |②-----|
③③③口 |③-----|
④④④口 |④-----|
35
口②②口 |①-----|
口①口① |------|
口口口口 |②-----|
口口口口 |------|
36
口口口口 |①-----|
①口口① |②-----|
①口口① |③-----|
口④③② |④-----|
37
口④③② |①---②-|
口口口口 |----③-|
口口口口 |----④-|
①口口口 |------|
38
口口口口 |①-----|
口①①口 |②-----|
③⑤口② |③---④-|
口口④口 |----⑤-|
39
③③①① |------|
口口口口 |①-----|
口口口口 |②-----|
②②口口 |③-----|
40
口口口口 |①-----|
口口口② |------|
②口口口 |------|
口口①① |②-----|
41
口口口口 |①-----|
①口口口 |----②-|
口②②① |------|
口口口口 |------|
42
①②⑤① |①-----|
②口口⑤ |②-----|
④口口③ |③---④-|
口④③口 |----⑤-|
43
口①口口 |------|
③口口口 |①-----|
口口口口 |②-----|
口口口② |③-----|
44
口口口③ |①-----|
口④口口 |②---③-|
②口①口 |----④-|
口口⑤口 |----⑤-|
45
③②②口 |----①-|
口③口口 |------|
口①①口 |②-----|
口口口口 |③-----|
46
口口口① |①-----|
口口①口 |------|
口②②口 |------|
口口口口 |②-----|
47
③①①口 |①-----|
②口口② |----②-|
③口口口 |------|
口口口口 |③-----|
48
口②②① |①---②-|
口③③口 |------|
口④④① |③-----|
口口口口 |④-----|
49
口③口口 |①-----|
②口口② |----②-|
口③口口 |------|
①口口① |③-----|
50
口口①口 |①-----|
口口口口 |------|
口口①口 |------|
口口口口 |------|
51
口②①口 |①-----|
②口③① |②-----|
③①口④ |③-----|
口③④口 |④-----|
52
①口①口 |①-----|
口②口② |------|
口口口口 |②-----|
口口口口 |------|
53
口口口口 |①-----|
口口口口 |------|
①口①口 |②-----|
口②口② |------|
54
①②口口 |①-----|
口口③口 |②-----|
④口口⑤ |③---④-|
口口口口 |⑤-----|
55
④口口② |①-----|
①口口③ |②-----|
口口口口 |③-----|
口③①口 |④-----|
56
口④②口 |①-----|
口③①口 |②-----|
口①③口 |③-----|
口口口口 |④-----|
57
④口口② |①-----|
③口口① |②-----|
口口口口 |③-----|
①口口③ |④-----|
58
口④②口 |①-----|
口口口口 |②-----|
③口口① |③-----|
口①③口 |④-----|
59
②口口① |①-----|
口②①口 |②-----|
④口口③ |③-----|
口④③口 |④-----|
60
口②④口 |①-----|
口③③口 |②-----|
口①①口 |③-----|
口口口口 |④-----|
61
①②③① |①-----|
口口口口 |②-----|
口口口口 |------|
口口口口 |③-----|
62
①口口② |------|
口口口口 |①-----|
口③口口 |------|
口口口口 |②---③-|
63
口②口口 |①-----|
口口口口 |②-----|
口口①③ |③-----|
④口口口 |④-----|
64
口口口口 |①-----|
④口口③ |②-----|
②口口口 |③-----|
口口①口 |④-----|
65
口①口口 |①-----|
口口②口 |②-----|
口口口④ |③-----|
口③口口 |④-----|
66
口口口③ |①-----|
①口口口 |------|
口②②口 |②-----|
口口口口 |③-----|
67
口②③口 |①-----|
口①①口 |②-----|
口口口口 |------|
口口口口 |③-----|
68
①口口① |①-----|
口②③口 |②-----|
口口口口 |------|
口口口口 |③-----|
69
口②③口 |①-----|
①口口① |②-----|
口口口口 |------|
口口口口 |③-----|
70
①口口② |①-----|
口②①口 |----②-|
③①②④ |----③-|
②口口① |④-----|
71
口④②口 |①-----|
①口口③ |②-----|
口口口口 |③-----|
口③①口 |④-----|
72
④口口② |①-----|
口③①口 |②-----|
口①③口 |③-----|
口口口口 |④-----|
73
口④②口 |①-----|
③口口① |②-----|
口口口口 |③-----|
①口口③ |④-----|
74
④口口② |①-----|
口口口口 |②-----|
③口口① |③-----|
口①③口 |④-----|
75
口②①口 |①-----|
②口口① |②-----|
④口口③ |③-----|
口④③口 |④-----|
76
口②④口 |①-----|
口③③口 |②-----|
口①①口 |③-----|
口口口口 |④-----|
77
①②③① |①-----|
口口口口 |②-----|
口口口口 |------|
口口口口 |③-----|
78
①口口② |------|
口口口口 |①-----|
口③口口 |------|
口口口口 |②---③-|
79
口口口口 |①-----|
口②口口 |②-----|
口口①口 |③-----|
④口③口 |④-----|
80
②口③口 |①-----|
口口口① |②-----|
④口口口 |③-----|
口口⑤口 |④---⑤-|
81
口口口口 |①-----|
口口②口 |②-----|
口口④口 |③-----|
③①口口 |④-----|
82
口口③② |①-----|
口①口口 |②-----|
口④口口 |③-----|
③口④口 |④-----|
83
口②③口 |①-----|
口①①口 |②-----|
口口口口 |------|
口口口口 |③-----|
84
口口口口 |------|
口①②口 |①-----|
口口口口 |------|
口口口口 |②-----|
85
口③①口 |------|
③口口① |①-----|
②口口口 |②-----|
口②口口 |③-----|
86
口口口口 |①-----|
口②②口 |------|
口②②① |②-----|
口口①口 |------|
87
②①口③ |①-----|
口口口① |②-----|
①口口口 |------|
口口①口 |③-----|
88
口①②口 |------|
口口口口 |①-----|
口口口口 |------|
口口口口 |②-----|
89
②口口③ |①-----|
口口①口 |②-----|
①口口① |------|
口①口口 |③-----|
90
口①②口 |------|
口口口口 |①-----|
口口口口 |------|
口口口口 |②-----|
91
口口口口 |①-----|
口①口口 |------|
①口口① |------|
口口①口 |------|
92
口口口① |①-----|
口①口口 |------|
口口①口 |------|
①口口口 |------|
93
口口口口 |------|
口口口口 |------|
口口口口 |------|
口口口口 |------|
94
①口口① |----①-|
口口口口 |------|
口①①口 |------|
口口口口 |------|

不確定度: 0

最終更新:2014年08月01日 22:50