LANA - ココロノキオク -
TOMOSUKE×Jazzin'park

EXTREME

Level: 6
BPM: 84
Notes: 353

1
口口口口 |----|
口口口口 |----|
口口口口 |----|
口口口口 |----|
2
口口口口 |①-②-|
口①④口 |③-④-|
口口②口 |----|
口③口口 |----|
3
口口口口 |①-②-|
口③口口 |③-④-|
口①④口 |----|
口口②口 |----|
4
口口口② |①---|
③口口口 |②-③-|
口口口口
口①①口

口⑧口⑦
口④口口
口口⑤口 |④-⑤⑥|
口⑥口口 |⑦-⑧-|
5
④口①口 |①-②③|
口②⑤口 |④⑤⑥-|
口⑥③口
口口口口

⑦口口口
口口口口
口口口口 |----|
口口口口 |⑦---|
6
口口口② |①---|
③口口口 |②-③-|
口口口口
口①①口

口口口⑦
口④口口
口口⑤口 |④-⑤⑥|
口⑥口口 |⑦---|
7
③口口口 |①-②-|
②口③④ |③-④-|
①④②口
口口①口

⑤口口口
口口口口
口口口口 |----|
口口口口 |⑤---|
8
口口口② |----①-|
口口①② |②-③-④-|
④③口口
口口口口

口口口⑧
口⑦⑥口
口口⑤口 |⑤-⑥⑦|
口口口口 |⑧---|
9
①口口口 |----|
①②口口 |①-②-③-|
口口口③
口口口口

⑥⑥口口
⑤口⑦口
口口④口 |④-⑤-|
口口口口 |⑥-⑦-|
10
口口口口 |①---|
②口口② |--②-|
口①①口
口口口口

口口口③
口口口口
口④口口 |----|
口口口口 |③--④|
11
口②②口 |①---|
③口①③ |--②-|
口口口口 |③---|
口口口口 |----|
12
口口口③ |①--②|
口②口③ |③-④⑤|
口④①⑤
口口口口

口口口⑧
⑦口⑥口
⑩口⑨口 |--⑥⑦|
口口口口 |⑧-⑨⑩|
13
①口口口 |----|
①口口口 |①-②③|
③口②口
口口口口

⑥口口口
口④口⑤
口⑦口⑧ |--④⑤|
口口口口 |⑥-⑦⑧|
14
口口口① |----|
口口口① |①-②③|
口②口③
口口口口

口口口⑥
⑤口④口
口口口口 |--④⑤|
口口口口 |⑥---|
15
口口口① |----|
口①口口 |①-②-|
②口口口
口口②口

口③口⑤
⑤口口③
⑥口④口 |③-④-|
④口口⑥ |⑤-⑥-|
16
②①①口 |①---|
口口③口 |②-③-|
口口③口
口口口口

⑤口口口
口④口口
口④口口 |④---|
口口口口 |⑤---|
17
口口口① |----|
口口口口 |①-②-|
口口口口
②口口②

口⑥⑥⑤
④口口⑤
④③③口 |③-④-|
口口口口 |⑤-⑥-|
18
②口口③ |①---|
口口口③ |②-③-|
口口口口
①口口①

⑥⑤⑦口
口⑤⑦口
⑥口④口 |④-⑤-|
口口口口 |⑥-⑦-|
19
口①口④ |①-②③|
口①口口 |④---|
口③口口
口口②口

口口口⑤
口口口口
口口口口 |----|
⑥口口口 |⑤-⑥-|
20
②口口口 |①---|
口①口口 |②-③-|
口口①口
口口口③

⑤口口口
口口④口
口④口口 |④---|
口口口口 |⑤---|
21
口④口④ |----|
⑤口③口 |--①-|
①③⑤① |②-③-|
口②口口 |④-⑤-|
22
口③口④ |①-②③|
口口口② |④-⑤-|
⑤口口⑤
①口口①

⑧口⑧口
口⑦口⑨
口⑨⑦口 |⑥-⑦-|
口口⑥口 |⑧-⑨-|
23
④口③口 |①-②③|
②口口口 |④-⑤-|
口口口口
⑤口口⑤

口口口⑧
⑨⑦⑦口
口⑥⑥⑨ |⑥-⑦-|
⑧口口口 |⑧-⑨-|
24
⑥⑥②② |--①-|
④口口③ |②-③-|
④⑦⑦③ |④-⑤-|
①①⑤⑤ |⑥-⑦-|
25
③口口口 |①-②-|
口④口② |③-④-|
②口④①
①口口口

口⑥⑤⑦
⑦口口⑧
⑧口口口 |⑤-⑥-|
口⑤⑥口 |⑦-⑧-|
26
口口口④ |①-②③|
口③⑤口 |④-⑤-|
口⑤②①
①口口口

⑧⑥⑦口
口⑨⑩⑧
口口口口 |⑥-⑦-|
口⑦⑥口 |⑧-⑨⑩|
27
②口口口 |--①-|
①②口③ |②-③-④-|
④口③口
口④口①

口⑤⑤⑥
口⑦⑧口
口⑦⑧口 |⑤---|
口口口口 |⑥-⑦⑧|
28
②口口① |----|
口口口口 |①---|
口口口口 |----|
口口③③ |②-③-|
29
④⑥口口 |①-②③|
口口③⑤ |④⑤⑥-|
口②①①
口口口口

口口口⑧
口口口口
口⑦⑦口 |⑦---|
口口口口 |⑧---|
30
口口口② |①---|
口口口口 |②-③-|
口①①③
口口口口

⑥口⑦口
口④⑦口
口口⑤口 |④-⑤-|
口口口口 |⑥-⑦-|
31
②口口⑥ |--①-|
口口③口 |②-③④|
口④①口 |⑤---|
口⑤⑤口 |⑥---|
32
⑥口⑦② |①---|
⑥④⑦口 |②-③-|
口口⑤③ |④-⑤-|
口①①口 |⑥-⑦-|
33
②口口口 |--①-|
口口③口 |②-③-|
口口①口
口口口口

口口④④
口口⑤⑤
口口口口 |----|
口口口口 |④-⑤-|
34
⑥③口③ |①-②-|
口④④口 |③-④-|
①①⑤⑤ |--⑤-|
②②⑦⑦ |⑥-⑦-|
35
①口口口 |----|
口②②口 |①---|
口口口口 |----|
口口口口 |②---|
36
口口口口 |①-②-|
口口口① |③-④-|
口口②③
口口④口

⑦口口⑧
⑥口口⑦
⑤口口⑥ |⑤-⑥-|
⑧口口⑤ |⑦-⑧-|
37
口口口口 |--①-|
口口①① |②-③-|
口口②②
口口③③

口口口口
口口口口
口口⑤口 |----|
④口口口 |--④⑤|
38
口口口口 |①-②-|
①口口口 |③-④-|
③②口口
口④④口

口口口⑥
⑥⑧⑧⑦
⑦⑧⑧⑤ |⑤-⑥-|
⑤口口口 |⑦-⑧-|

不確定度: 0

最終更新:2014年08月01日 22:49