Never Look Back in Sorrow
AIKO OI

EXTREME

Level: 10
BPM: 270
Notes: 806

1
口口口口 |----|
口口口口 |----|
口口口口 |----|
口口口口
2
口口口口 |----|
口口口口 |----|
口口口口 |----|
口口口口
3
口口口口 |----|
口口口④ |①-②-|
口②③口 |③-④-|
①口口口
4
口口①口 |①---|
口口口口 |----|
口口口口 |----|
口口口口
5
口口口口 |----|
口口口口 |----|
口口口口 |①---|
口口①口
6
①口口口 |①---|
①口口口 |----|
①口口口 |----|
口口口口
7
口口口口 |①---|
口口口口 |----|
口口①口 |②---|
①②口口
8
口口口① |①---|
口①口① |----|
口口口① |----|
口口口口
9
口口口口 |----|
口口口口 |----|
口口口口 |①---|
口口①口
10
①口口口 |①---|
①口口口 |----|
①口③口 |②-③-|
口②口口
11
口口口口 |①---|
口①口口 |----|
口口口口 |②---|
②口口口
12
口①口① |①---|
口口口① |----|
口③口① |②-③-|
口口②口
13
口口口口 |①---|
口口①口 |----|
口口口口 |②---|
口口口②
14
①口口口 |①---|
①口口口 |----|
①口口口 |----|
口口口口
15
口②口口 |①---|
口口口口 |②---|
口口①口 |③---|
①口③口
16
口口口① |①---|
口口口① |----|
口①口① |----|
口口口口
17
口①①口 |①---|
口③口口 |----|
口口②口 |②-③-|
口口口口
18
①口口① |①---|
①口口口 |----|
①口口口 |----|
口口口口
19
口口②口 |①---|
口③口口 |②---|
口口④口 |③-④-|
口①口口
20
口口口① |①---|
口口口① |----|
口口口① |----|
①口口口
21
口②口口 |①---|
口③口口 |②---|
口口口口 |--③-|
口口①口
22
①口口口 |①---|
①口口口 |----|
①口口口 |----|
口口口①
23
口②口口 |①---|
口口口口 |②---|
口口③口 |--③-|
口口①口
24
口口口① |①---|
口口口① |----|
口口口① |----|
①口口口
25
①口口口 |①---|
①口口口 |----|
①口口口 |----|
口口口①
26
口口口① |①---|
口口口口 |----|
口口口口 |----|
口口口口
27
口口口口 |①---|
口口④口 |②-③-|
口口②③ |--④-|
口口口①
28
口口口② |①---|
口口口① |②---|
口口口口 |③---|
口口③口
29
口口口口 |①---|
口口④口 |②-③-|
口口②③ |--④-|
口口口①
30
口口口② |①---|
口口口① |②---|
口口口口 |③---|
口口③口
31
口口口口 |①---|
口③④口 |②-③-|
口口②③ |--④-|
①口口①
32
②口口② |①---|
口口口① |②---|
口①口口 |③---|
口口③口
33
口口口口 |①---|
口③④口 |②-③-|
口口②③ |--④-|
①口口①
34
②口口② |①---|
口口口① |②---|
口①口口 |③---|
口口③口
35
口②①口 |①---|
②口口口 |--②-|
口口①② |----|
①口口口
36
②口口② |①---|
口口①① |②---|
口口口口 |----|
口①口口
37
口口口口 |--①-|
口口口口 |--②-|
①口口① |----|
②口口②
38
口口口口 |--①-|
②口口① |--②-|
口①②③ |--③-|
口口③口
39
口①口口 |①---|
口②①口 |--②-|
①口口口 |----|
口②口②
40
口口①① |①---|
口口口口 |----|
口口口口 |----|
①口口口
41
口口口口 |--①-|
口口②口 |--②-|
口②口口 |----|
口①口①
42
口①②① |--①-|
③口口口 |--②-|
②口口口 |--③-|
口③口口
43
①口口口 |①---|
口②②① |--②-|
口口①口 |----|
②口口口
44
口②口② |①---|
口口口口 |②---|
②①口① |----|
口口口①
45
口口①口 |--①-|
①口口口 |--②-|
口口口口 |----|
②口②口
46
口口口① |--①-|
口①②口 |--②-|
②口口③ |--③-|
口③口口
47
口②①口 |①---|
口口口口 |--②-|
口①②口 |----|
②口口①
48
②口口① |①---|
口①②口 |--②-|
口口口口 |----|
口②①口
49
口②①口 |①---|
②口口① |--②-|
口①②口 |----|
口口口口
50
②口口① |①---|
口①②口 |--②-|
口口口口 |----|
②口口①
51
口②①口 |①---|
口口口口 |--②-|
口①②口 |----|
口②①口
52
口口口口 |①---|
口①②口 |--②-|
①口口② |----|
②口口①
53
①口②① |①---|
口③口口 |②---|
口口口口 |③---|
口口口口
54
口口口口 |①---|
口口口口 |②---|
①口③口 |③---|
口②口口
55
口口①① |①---|
口口口口 |--②-|
③②口口 |--③-|
②口口口
56
口口口口 |①---|
口口口① |---②|
口口口① |----|
口②②口
57
①①口口 |①---|
口口口口 |--②-|
口口②③ |--③-|
口口口②
58
口口口口 |①---|
①口口口 |----|
①口口口 |②---|
口②口口
59
口口④⑤ |①-②-|
口口③① |③-④-|
口②口口 |⑤---|
①口口口
60
口口口口 |①-②-|
口⑤口口 |③-④-|
④口口口 |⑤---|
口③②①
61
口口口⑤ |①-②-|
口口口④ |③-④-|
口②③口 |⑤---|
①口口口
62
⑤口口口 |①-②-|
④③②口 |③-④-|
口口口① |⑤---|
口口口口
63
口②①口 |①---|
口口口口 |--②-|
口①②口 |----|
②口口①
64
②口口① |①---|
口①②口 |--②-|
口口口口 |----|
口②①口
65
口②①口 |①---|
②口口① |--②-|
口①②口 |----|
口口口口
66
②口口① |①---|
口①②口 |--②-|
口口口口 |----|
②口口①
67
口②①口 |①---|
口口口口 |--②-|
口①②口 |----|
口②①口
68
口口口口 |①---|
口①②口 |--②-|
①口口② |----|
②口口①
69
①口②① |①---|
③口口口 |②---|
口口口口 |③---|
口口口口
70
口口口口 |①---|
口口口口 |②---|
口①口口 |③---|
③口②口
71
口口①① |①---|
③口②口 |--②-|
口③口② |--③-|
口①口口
72
口口口口 |①---|
口口口① |----|
口口①口 |②---|
②口口口
73
①①口口 |①---|
口②口③ |--②-|
②口③口 |--③-|
口口①口
74
口口②口 |①---|
①口口口 |----|
口①口口 |②---|
②口口口
75
口①口口 |①-②-|
口⑤口口 |③-④-|
④口口口 |⑤---|
口③②①
76
③口③口 |①-②-|
④口④口 |③---|
口口②① |④---|
口口口口
77
口②口② |①---|
口口口口 |②---|
口①口口 |----|
口口①口
78
①口①口 |①---|
口口口口 |②---|
口口②口 |----|
口②口口
79
口口口口 |----|
口口口口 |----|
口口口口 |----|
口口口口
80
口口①① |①---|
口口口口 |----|
口口口口 |----|
口口①①
81
①①口口 |①---|
口口口口 |----|
口口口口 |----|
①①口口
82
⑦口口口 |①-②-|
③⑧⑥口 |③-④-|
口④②⑤ |⑤-⑥-|
口口口① |⑦-⑧-|
83
口③②口 |①-②-|
口口口① |③---|
口口口口 |----|
口口口口
84
口口口口 |①-②-|
口口口⑥ |③-④-|
口③⑤② |⑤-⑥-|
④口①口
85
口⑤口④ |①-②-|
⑥①③口 |③-④-|
②口口口 |⑤-⑥-|
口口口口
86
③口口口 |①-②-|
口口口口 |③---|
口口口② |----|
口①口口
87
口口口口 |①-②-|
⑦②⑤口 |③-④-|
⑧口口口 |⑤-⑥-|
③⑥①④ |⑦-⑧-|
88
口①口③ |①-②-|
口口口口 |③---|
口口②口 |----|
口口口口
89
口口口口 |①-②-|
口②①④ |③-④-|
口口口口 |⑤-⑥-|
③⑥⑤口
90
口口口口 |①-②-|
⑤口口口 |③-④-|
①④③⑥ |⑤-⑥-|
口口口②
91
③口口口 |①-②-|
口②①口 |③---|
口口口口 |----|
口口口口
92
⑧口口口 |①-②-|
口⑦⑥口 |③-④-|
④⑤口口 |⑤-⑥-|
口③②① |⑦-⑧-|
93
口①②③ |①-②-|
口口口口 |③---|
口口口口 |----|
口口口口 |----|
94
②口口口 |①-②-|
⑥①③口 |③-④-|
口⑤⑦④ |⑤-⑥-|
口口口⑧ |⑦-⑧-|
95
口口口口 |①-②-|
口⑥口③ |③-④-|
②口口口 |⑤-⑥-|
⑤①④口 |----|
96
口①口④ |①---|
①口③⑤ |----|
口②口口 |②-③-|
口口口口 |④-⑤-|
97
口口②口 |①---|
⑥③口口 |②-③-|
④⑦口口 |④-⑤-|
口①⑤口 |⑥-⑦-|
98
口口口③ |①-②-|
口口①④ |③-④-|
⑧口⑤② |⑤-⑥-|
⑦⑥口口 |⑦-⑧-|
99
②②①口 |①-②-|
③③口口 |--③-|
口⑤口口 |--④-|
口口④④ |--⑤-|
100
⑤③口② |①---|
口口④① |②---|
口口③⑤ |③---|
②④口口 |④-⑤-|
101
口④①③ |--①-|
口②口⑤ |--②-|
③①④口 |③---|
⑤口②口 |④-⑤-|
102
②口②口 |--①-|
①口①口 |----|
口口口口 |②---|
口③口③ |③---|
103
⑤③⑤口 |①---|
口④④② |②-③-|
①口①③ |--④-|
②口口口 |--⑤-|
104
口口口② |--①-|
③口口口 |--②-|
口②③口 |③---|
④①④① |④---|
105
②口②口 |①---|
口①口① |②---|
③口口③ |③---|
口④口④ |④---|
106
口口口口 |①---|
①③①② |②-③-|
口口③口 |----|
②口口口 |----|
107
口①口口 |①---|
口口口口 |----|
①口口① |----|
口①口口
108
口口口① |①---|
口口口口 |----|
口①口口 |----|
①口口口
109
①②①口 |①-②-|
口③④③ |③-④-|
⑤⑥⑤口 |⑤-⑥-|
口口口口
110
口口口口 |①-②-|
口口口口 |----|
口口口口 |----|
口①②①
111
①②②口 |①---|
口①口口 |--②-|
口口口口 |----|
①口口口
112
口口口① |①---|
②口①② |--②-|
②口口口 |----|
口口口①
113
口②口口 |①---|
口口口口 |--②-|
口①口② |----|
①②①口
114
②口口① |①---|
口口②口 |--②-|
②口①口 |----|
口口口①
115
口②①口 |①---|
①口口① |--②-|
口②口口 |----|
②口口口
116
口口口口 |①---|
口①②口 |--②-|
②口口① |----|
口口①②

BPM: 340
117
①口口① |①---|
口口口口 |②---|
口口②口 |----|
口口口口
118
口口口口 |①---|
口②口口 |②---|
口口口口 |----|
口①口口
119
口口口① |①---|
口口口口 |②---|
口口口② |----|
口口口口
120
口口口口 |①---|
②口口口 |②---|
口口口口 |----|
①口口口
121
口口口口 |①---|
口口①口 |②---|
口口口口 |----|
口口②口
122
口口口口 |①---|
口②口口 |②---|
口口口口 |----|
口①口口
123
口口口口 |①---|
①口口口 |②---|
口②口口 |----|
口口口口
124
口口口② |①---|
口口①口 |②---|
口口口口 |----|
口口口口
125
口口口口 |①---|
口②口口 |②---|
①口口口 |----|
口口口口
126
口口口口 |①---|
口口口口 |②---|
口口口① |----|
口口②口
127
口口口口 |①---|
口口口口 |②---|
口②口口 |----|
①口口口
128
口口口口 |①---|
口口②口 |②---|
口口口① |----|
口口口口
129
①口口口 |①---|
口②口口 |②---|
口口口口 |----|
口口口口
130
口口口口 |①---|
口口口② |②---|
口口①口 |----|
口口口口
131
口口口口 |①---|
②口口口 |②---|
口①口口 |----|
口口口口
132
口口口① |①---|
口口②口 |②---|
口口口口 |----|
①①口口
133
①①①口 |①---|
③③口口 |②-③-|
口口口② |----|
口口口口
134
口口口口 |①---|
口口口② |②---|
①①口口 |----|
口口①口
135
口口口口 |①---|
口口①口 |②---|
口口口口 |----|
口口口②
136
②②口② |①---|
口口口口 |②---|
口口①口 |----|
口口口口
137
口口①口 |①---|
口口口口 |②-③-|
③③口② |----|
口口口口
138
口口口口 |①---|
口口口① |②---|
口口口口 |----|
①①②口
139
口口口① |①---|
口口口口 |②---|
口口②口 |----|
口口口口
140
口口口口 |①---|
口口②口 |②---|
①①口口 |----|
口口口①
141
①①①口 |①---|
③③口口 |②-③-|
口口口② |----|
口口口口
142
口口口① |①---|
口口口口 |②---|
①①②口 |----|
口口口口
143
口口口口 |①---|
口口口① |②---|
口口口口 |----|
口口②口
144
口口口口 |①---|
口口①口 |②---|
口口口口 |----|
②②口②
145
口口口① |①---|
③③口口 |②-③-|
口口②口 |----|
口口口口
146
口口①口 |①---|
口口口口 |②---|
①①口② |----|
口口口口
147
口口口口 |①---|
口口口① |②---|
口口口口 |----|
口口②口
148
口口口口 |①---|
口口①口 |②---|
口口口口 |----|
①①口②
149
①①②① |①---|
②②口口 |--②-|
口口②① |----|
口口口口
150
口口口口 |①---|
口口①① |----|
①①口口 |----|
口口口口
151
①口口口 |①---|
口口口口 |----|
口口口口 |----|
口口口口
152
口口口口 |----|
口口口口 |----|
口口口口 |----|
口口口口
153
口口口口 |①---|
①②①① |--②-|
口口②② |----|
①②口口
154
口口口口 |①---|
口口口口 |----|
①①口口 |----|
口口①①
155
①①口口 |①---|
口口口口 |----|
口口口口 |----|
口口口口
156
口口口口 |----|
口口口口 |----|
口口口口 |----|
口口口口

BPM: 280
157
⑥⑤口口 |①-②-|
口口④口 |③-④-|
口口③口 |⑤-⑥-|
口口②①
158
口口④⑥ |①-②-|
口③口⑤ |③-④-|
口②口口 |⑤-⑥-|
①口口口
159
⑥④口口 |①-②-|
⑤口③口 |③-④-|
口口②① |⑤-⑥-|
口口口口
160
口口口口 |①-②-|
口⑥口口 |③-④-|
①⑤口口 |⑤-⑥-|
口②④③
161
口②①口 |①---|
②口口口 |--②-|
口口①② |----|
①口口口
162
②口口② |①---|
口口①① |②---|
口口口口 |----|
口①口口
163
口口口口 |--①-|
口口口口 |--②-|
①口口① |----|
②口口②
164
口口口口 |--①-|
②口口① |--②-|
口①②③ |--③-|
口口③口
165
口①口口 |①---|
口②①口 |--②-|
①口口口 |----|
口②口②
166
口口①① |①---|
口口口口 |----|
口口口口 |----|
①口口口
167
口口口口 |--①-|
口②口口 |--②-|
口口②口 |----|
口①口①
168
①口口① |--①-|
③口②口 |--②-|
②口口口 |--③-|
口③口口
169
口②①口 |①---|
口口口口 |--②-|
口①②口 |----|
②口口①
170
②口口① |①---|
口①②口 |--②-|
口口口口 |----|
口②①口
171
口②①口 |①---|
②口口① |--②-|
口①②口 |----|
②口口①
172
②口口① |①---|
口①②口 |--②-|
②口口① |----|
口②①口
173
口②①口 |①---|
口口口口 |--②-|
口①②口 |----|
②口口①
174
②口口① |①---|
口①②口 |--②-|
口口口口 |----|
口②①口
175
口口②口 |①---|
①③口① |②---|
口口口口 |③---|
口口口口
176
口口口口 |①---|
口口口口 |②---|
口①口口 |③---|
口③②口
177
口①口① |①---|
口口口口 |----|
口口口口 |----|
口口口口
178
口口口口 |----|
口口口口 |----|
口口口口 |①---|
口口口①
179
①口口口 |①---|
口②口口 |②---|
口口③口 |③---|
口口口口
180
口口口口 |①---|
口口口口 |----|
口口口口 |----|
口①口口


不確定度: 0

最終更新:2013年08月16日 22:56