Asterism
ZUKI

EXTREME

Level: 9
BPM: 175
Notes: 647

1
口口口口 |----|
口口口口 |----|
口口口口 |----|
口口口口 |----|
2
口⑧⑥口 |①-②-|
口口口口 |③-④-|
④⑦⑤③ |⑤-⑥-|
②口口① |⑦-⑧-|
3
②口口① |①-②-|
④⑧⑥③ |③-④-|
口口口口 |⑤-⑥-|
口⑦⑤口 |⑦-⑧-|
4
口⑧⑥口 |①-②-|
口口口口 |③-④-|
④⑦⑤③ |⑤-⑥-|
②口口① |⑦-⑧-|
5
⑤口口⑤ |①-②-|
④③②① |③-④-|
⑥⑦⑧⑨ |⑤---|
口口口口 |⑥⑦⑧⑨|
6
口④③口 |①-②-|
⑧②①⑥ |③-④-|
口口口口 |⑤-⑥-|
⑦口口⑤ |⑦-⑧-|
7
⑥④②⑥ |①-②-|
⑩⑨⑧⑦ |③-④-|
⑤③①⑤ |⑤-⑥-|
口口口口 |⑦⑧⑨⑩|
8
⑩⑥⑥⑦ |①②③④|
⑪口⑬⑧ |⑤-⑥-|
⑫④③⑨ |-⑦⑧⑨|
⑤②①⑤ |⑩⑪⑫⑬|
9
⑩口⑬⑦ |①②③④|
⑪①口⑧ |⑤-⑥-|
⑫⑤④⑨ |-⑦⑧⑨|
⑥③②⑥ |⑩⑪⑫⑬|
10
口①口口 |①---|
口③③口 |----|
口④④口 |②---③-|
口②②口 |--④---|
11
口①①口 |①---|
口口口口
口口口口
口口口口
12
④⑤口口 |①--②|
口③②① |--③-|
④⑤口口 |----|
口③②① |④--⑤|
13
口口①口 |--①-|
口③③口 |----|
口口①口 |②-③-|
口②②口 |----|
14
①②③口 |①--②|
口口⑤④ |--③-|
①②③口 |----|
口口⑤④ |④--⑤|
15
③⑪④口 |--①-|
⑨①⑩⑥ |--②③|
口⑦②口 |④⑤⑥⑦|
⑤①口⑧ |⑧⑨⑩⑪|
16
③④④③ |①--②|
口⑤⑤口 |--③-|
②口口② |----|
口①①口 |④--⑤|
17
口③③口 |--①-|
口口口口 |----|
口②②口 |②-③-|
①口口① |----|
18
③口口③ |①--②|
口②②口 |--③-|
⑦口口⑥ |----|
⑤①①④ |④⑤⑥⑦|
19
⑥②②⑥ |①--②|
口⑤口① |--③④|
口口④口 |⑤--⑥|
口③口口 |----|
20
④⑤口口 |①--②|
口③②① |--③-|
④⑤口口 |----|
口③②① |④--⑤|
21
口口①口 |--①-|
口③③口 |----|
口口①口 |②-③-|
口②②口 |----|
22
①②③口 |①--②|
口口⑤④ |--③-|
①②③口 |----|
口口⑤④ |④--⑤|
23
③⑪④口 |--①-|
⑨①⑩⑥ |--②③|
口⑦②口 |④⑤⑥⑦|
⑤①口⑧ |⑧⑨⑩⑪|
24
③④④③ |①--②|
口⑤⑤口 |--③-|
②口口② |----|
口①①口 |④--⑤|
25
口③③④ |--①-|
口口口⑤ |----|
口②②口 |②-③-|
①口口① |--④⑤|
26
③口⑦口 |①--②|
④②⑧口 |--③④|
⑤口⑨① |⑤--⑥|
口口⑩⑥ |⑦⑧⑨⑩|
27
口③⑤③ |①--②|
④②口口 |--③-|
口①⑤① |-④--|
④②⑦⑥ |⑤-⑥⑦|
28
口④口③ |①---|
口口⑤口 |②-③-|
口⑥口② |--④-|
口①口口 |⑤-⑥-|
29
①口⑧⑦ |--①-|
口②口口 |②-③-|
③⑥口口 |④-⑤-|
⑤④口口 |⑥-⑦⑧|
30
口①口口 |①---|
口④②口 |②-③-|
⑤口口口 |--④-|
口⑥③口 |⑤-⑥-|
31
口口④⑤ |--①-|
口口⑥③ |②-③-|
口口②口 |④-⑤-|
⑦⑧口① |⑥-⑦⑧|
32
③口口口 |①---|
口口口口 |②-③-|
②④口口 |--④-|
口口①口 |----|
33
⑤③②④ |①---|
⑦口口⑥ |②③④⑤|
⑨口①⑧ |⑥⑦⑧⑨|
⑬⑪⑩⑫ |⑩⑪⑫⑬|
34
⑥④③⑤ |①②③④|
⑧②①⑦ |⑤⑥⑦⑧|
⑯⑩⑨⑮ |⑨⑩⑪⑫|
⑭⑫⑪⑬ |⑬⑭⑮⑯|
35
④②①③ |----|
⑥口口⑤ |①②③④|
口⑧⑦口 |⑤⑥⑦⑧|
⑫⑩⑨⑪ |⑨⑩⑪⑫|
36
⑧⑥⑤⑦ |①②③④|
⑩④③⑨ |⑤⑥⑦⑧|
②⑫⑪① |⑨⑩⑪⑫|
⑯⑭⑬⑮ |⑬⑭⑮⑯|
37
②口③② |----|
⑥口口口 |-①②-|
①④口① |----|
口口⑤口 |③④⑤⑥|
38
口⑧⑥口 |①-②-|
口口口口 |③-④-|
④⑦⑤③ |⑤-⑥-|
②口口① |⑦-⑧-|
39
②口口① |①-②-|
④⑧⑥③ |③-④-|
口口口口 |⑤-⑥-|
口⑦⑤口 |⑦-⑧-|
40
口⑧⑥口 |①-②-|
口口口口 |③-④-|
④⑦⑤③ |⑤-⑥-|
②口口① |⑦-⑧-|
41
⑤口口⑤ |①-②-|
④③②① |③-④-|
⑥⑦⑧⑨ |⑤---|
口口口口 |⑥⑦⑧⑨|
42
口①①⑤ |①---|
口口口③ |②-③-|
口口口⑤ |--④-|
④口④② |--⑤-|
43
②口口口 |--①-|
口①口③ |--②-|
②口口口 |--③-|
④③④① |--④-|
44
口②③② |①-②-|
①⑤①⑤ |--③-|
口⑥③⑥ |--④-|
口④口④ |⑤-⑥-|
45
②口②⑥ |--①-|
③口③⑤ |②-③-|
口口④口 |--④-|
①口①口 |⑤-⑥-|
46
口⑧⑥口 |①-②-|
口口口口 |③-④-|
④⑦⑤③ |⑤-⑥-|
②口口① |⑦-⑧-|
47
②口口① |①-②-|
④⑧⑥③ |③-④-|
口口口口 |⑤-⑥-|
口⑦⑤口 |⑦-⑧-|
48
口⑧⑥口 |①-②-|
口口口口 |③-④-|
④⑦⑤③ |⑤-⑥-|
②口口① |⑦-⑧-|
49
口口口口 |①-②-|
②④④① |③-④-|
⑧⑦⑥⑤ |----|
口③③口 |⑤⑥⑦⑧|
50
口①①口 |①---|
口口口口 |----|
口口口口 |----|
②②②② |②---|
51
①口口① |①---|
口①①口 |----|
②③④⑤ |②-③-|
口口口口 |④-⑤-|
52
⑦①②⑧ |①-②-|
⑤③④⑥ |③-④-|
口口口口 |⑤-⑥-|
口口口口 |⑦-⑧-|
53
口①②口 |①-②-|
口③④口 |③-④-|
口⑤⑥口 |⑤-⑥-|
口⑦⑧口 |⑦-⑧-|
54
①口口⑧ |①-②-|
⑦口口② |③-④-|
③口口⑥ |⑤-⑥-|
⑤口口④ |⑦-⑧-|
55
①①⑧⑧ |①-②-|
⑦⑦②② |③-④-|
③③⑥⑥ |⑤-⑥-|
⑤⑤④④ |⑦-⑧-|
56
①口口③ |----|
口③口① |①---|
①口口口 |--②-|
②口②① |--③-|
57
②口③口 |--①-|
④口口口 |--②-|
口③②① |--③-|
④①口口 |--④-|
58
口口⑤④ |①-②-|
口⑥③口 |③-④-|
⑦口口② |⑤-⑥-|
口⑧①口 |⑦-⑧-|
59
口口口口 |①---|
②③④口 |----|
口口①口 |--②-|
口口口口 |③-④-|
60
口③口口 |----|
口口口③ |①---|
口口口② |--②-|
①②口① |--③-|
61
口口①④ |--①-|
口②口口 |--②-|
①④③口 |--③-|
③口口② |--④-|
62
⑦①①⑧ |①-②-|
④⑥⑥⑤ |③-④-|
③⑧⑦③ |⑤-⑥-|
⑤②②④ |⑦-⑧-|
63
口②②口 |①-②-|
③口口④ |③-④-|
口口口口
④①①③

口⑫口口
口⑧⑤口
⑥⑩⑨⑦ |⑤⑥⑦⑧|
口口⑪口 |⑨⑩⑪⑫|
64
①③口① |----|
口口口口 |①---|
③口口口 |--②-|
口②口② |--③-|
65
口口④口 |--①-|
②①③① |--②-|
口④口口 |--③-|
③口②口 |--④-|
66
口口口口 |--①-|
③④口⑤ |②-③-|
口口⑦⑥ |④-⑤-|
口①②口 |⑥-⑦-|
67
口口⑦口 |①-②-|
⑥口⑧⑤ |③-④-|
①口⑨口 |⑤-⑥-|
②③⑩④ |⑦⑧⑨⑩|
68
⑥①⑥① |--①-|
口③口③ |②-③-|
⑤②⑤② |④---|
口④口④ |⑤-⑥-|
69
口②口② |--①-|
⑤④④⑤ |②---|
口①口① |③-④-|
口③③口 |--⑤-|
70
⑤口口⑤ |--①-|
口口口口 |②-③-|
③⑥⑥④ |④---|
①口口② |⑤-⑥-|
71
④⑥⑥④ |--①-|
口①①口 |--②-|
②⑥⑥② |③-④-|
⑤③③⑤ |⑤-⑥-|


不確定度: 0

最終更新:2013年08月16日 22:40