le mirage
Vivian

EXTREME

Level: 9
BPM: 160
Notes: 664

1
口口口口 |----|
口口口口 |----|
口口口口 |----|
口口口口 |----|
2
口口口口 |①-②-|
①口口④ |③-④-|
口③口口
口口口②

口口⑦口
⑦口口口
口口⑥口 |⑤-⑥-|
⑤口口口 |--⑦-|
3
口③口口 |--①-|
口口口③ |--②-|
②口口① |--③-|
④①②④ |--④-|
4
口⑦⑥口 |①-②-|
①⑦⑥口 |③-④-|
③⑤④② |⑤-⑥-|
口⑤④口 |--⑦-|
5
口口口② |----|
口口③⑥ |①-②-|
④口口口 |③-④-|
①⑤口① |⑤-⑥-|
6
口口口⑦ |①-②-|
口②⑥口 |③-④-|
口⑤①口 |⑤-⑥-|
④口口③ |--⑦-|
7
③②①口 |--①-|
④口④① |--②-|
④④④② |--③-|
口④口③ |--④-|
8
④⑤④⑤ |--①-|
口①口口 |②-③-|
口口口② |④-⑤-|
③⑥③⑥ |--⑥-|
9
口④口口 |----|
口口③口 |----|
口②口口 |----|
口口①口 |①②③④|
10
③口口③ |①---|
②④④① |②---|
②口口① |--③-|
⑤口口⑤ |④-⑤-|
11
③②①③ |--①-|
口④④口 |--②-|
②口口① |--③-|
⑤口口⑤ |④-⑤-|
12
口④①口 |--①-|
⑤口口② |②-③-|
口口口口 |--④-|
口⑥③口 |⑤-⑥-|
13
口②口口 |--①-|
口口①② |--②-|
①④④口 |--③-|
③口口③ |--④-|
14
⑦口口⑦ |①-②-|
⑥③①⑥ |③-④-|
①口口③ |⑤-⑥-|
⑤④②⑤ |--⑦-|
15
④口口④ |--①-|
口③③口 |----|
②口口② |--②-|
口①①口 |③-④-|
16
⑦④②⑦ |①-②-|
①⑤口③ |③-④-|
⑥③①⑤ |--⑤-|
口口⑥口 |⑥-⑦-|
17
口口口口 |----|
口口口口 |----|
口口口口 |----|
口口口口 |----|
18
口口口② |①---|
口①①口 |②---|
口①①口
口口口口

口口口口
口口口口
⑤⑥口口 |----|
口③④口 |③④⑤⑥|
19
②口①口 |①---|
口口口① |②-③-|
口口③③
口口口口

口⑥⑥口
④④口口
口口口口 |④-⑤-|
口口⑤⑤ |--⑥-|
20
口口口口 |----|
口口口口 |--①-|
口口③② |----|
①口口① |--②③|
21
①口②② |①---|
③口口口 |②---|
口③口④ |③-④-|
⑤口④⑤ |--⑤-|
22
口口口口 |----|
口口口口 |----|
①②口口 |----|
口口口口 |--①②|
23
②口①口 |①---|
口口口① |②-③-|
口口③③
口口口口

口⑥⑥口
④④口口
口口口口 |④-⑤-|
口口⑤⑤ |--⑥-|
24
口口口口 |----|
口口口口 |--①-|
口②口② |----|
①口口① |②---|
25
口④④口 |①---|
③②③② |②-③-|
①口①口 |--④-|
口⑤⑤口 |--⑤-|
26
口口口口 |----|
口口口口 |----|
①②口口 |----|
口口口口 |--①②|
27
⑦⑦口① |①---|
③口口② |②-③-|
⑤口口④ |④-⑤-|
口口口⑥ |⑥-⑦-|
28
口口口① |①---|
口口口② |②-③-|
⑥⑦口④ |④---|
③③口⑤ |⑤-⑥⑦|
29
②②口① |①---|
③③口② |②---|
④口口③ |③-④-|
⑥⑥口⑤ |⑤-⑥-|
30
口口口① |①---|
口口口② |②---|
口⑤⑥③ |③---|
口口口④ |④-⑤⑥|
31
①口口⑦ |①---|
②口③⑦ |②-③-|
④口口⑤ |④-⑤-|
⑥口口口 |⑥-⑦-|
32
①口⑤口 |①---|
②口口口 |②-③-|
④口口③ |④---|
⑤口口③ |⑤---|
33
①口口口 |①---|
②口③口 |②-③-|
④口⑤② |④-⑤-|
⑥口①⑦ |⑥-⑦-|
34
口口④口 |①-②-|
①②口口 |③-④-|
口⑦⑥⑤ |--⑤-|
口口③口 |⑥-⑦-|
35
④口口口 |①---|
口③口口 |----|
口口②口 |②--③|
④③②① |--④-|
36
口口口口 |①---|
②③口① |----|
②口③① |②---|
口口口口 |--③-|
37
口③①口 |①---|
③口②① |②-③-|
口②口口
①①③③

口口口⑤
口④口⑤
⑤口④口 |--④-|
口⑤口口 |--⑤-|
38
①口口口 |----|
①口口口 |--①-|
口口口① |----|
②口①② |②---|
39
口①①口 |①---|
②④④③ |--②-|
口①①口 |③--④|
口⑤⑤口 |--⑤-|
40
①口口① |①---|
口口口口 |②-③-|
③口口②
口口口口

⑥口口⑥
口⑤⑤口
口口口口 |--④-|
口④④口 |⑤-⑥-|
41
口口口口 |①---|
口口口口 |----|
口①①口 |----|
口口口口 |----|
42
③口口④ |①---|
①口口① |②---|
②口口② |③---|
口④③口 |④---|
43
口①①口 |①---|
④③③④ |②-③-|
口①①口 |----|
②口口② |④---|
44
口口口口 |①---|
口口口口 |----|
①口口① |②---|
口②②口 |----|
45
口①③口 |①---|
①②口③ |②-③-|
口③①②
③口口①

⑤口口口
⑤口④口
④口口口 |--④-|
口口⑤⑤ |--⑤-|
46
口②②① |----|
口口口① |--①-|
口口口口 |----|
①①口口 |②---|
47
口口⑦⑧ |①-②-|
口口⑤⑥ |③-④-|
口①③④ |⑤-⑥-|
口口①② |⑦-⑧-|
48
⑧⑦⑦口 |①-②-|
⑥⑤⑤口 |③-④-|
④③口口 |⑤-⑥-|
②①口口 |⑦-⑧-|
49
口口口口 |①-②-|
口口口口 |③-④-|
④口口③
②口①①

口口口口
⑥口口⑤
口口口口 |⑤-⑥-|
口⑦⑦口 |⑦---|
50
①①①① |①---|
口口④口 |----|
口③口口 |---②|
口口②口 |③④--|
51
口口口口 |①-②-|
①口口④ |③-④-|
口口②口
口③口口

口口口口
口口口口
口⑤⑦口 |⑤-⑥-|
⑦口⑥口 |--⑦-|
52
口③口口 |--①-|
口①②③ |--②-|
②口口① |--③-|
④口口④ |--④-|
53
①⑦⑥② |①-②-|
口⑦⑥口 |③-④-|
③⑤④口 |⑤-⑥-|
口⑤④口 |--⑦-|
54
②口口① |----|
口口口口 |①---|
口口口口 |②---|
③①②③ |③---|
55
口⑥口口 |①-②-|
⑤口⑦口 |③-④-|
④③②① |⑤--⑥|
口口口口 |--⑦-|
56
口口口口 |--①-|
口口口① |--②-|
③②③② |--③-|
④口口④ |--④-|
57
③②②③ |①-②-|
⑦⑥⑥⑦ |③-④-|
④⑤⑤④ |⑤-⑥-|
口①①口 |--⑦-|
58
口口④口 |----|
口口③口 |----|
口②口口 |----|
口①口口 |①②③④|
59
①②口① |①-②-|
③④口③ |③-④-|
⑤⑥口⑤ |⑤-⑥-|
⑧⑧口⑦ |⑦-⑧-|
60
②②口① |①-②-|
⑥⑥③口 |③-④-|
④④口⑤ |⑤-⑥-|
⑧⑧⑦口 |⑦-⑧-|
61
②①口⑦ |①-②-|
⑥⑤口⑤ |③-④-|
④③口③ |⑤-⑥-|
⑧⑦口① |⑦-⑧-|
62
口②④口 |①---|
③口口③ |②---|
②④②口 |③---|
口③口① |④---|
63
⑤①⑤① |①-②-|
④口口⑦ |③-④-|
③口口口 |⑤-⑥-|
②⑥②⑥ |--⑦-|
64
④①④① |①-②-|
③口口⑥ |--③-|
口口口口 |④-⑤-|
②⑤②⑤ |--⑥-|
65
口②口② |①-②-|
口口②口 |--③-|
口口③口
①口①口

⑤口⑤口
⑤口口口
⑥口口⑥ |④-⑤-|
⑥④口⑥ |--⑥-|
66
口③口口 |①---|
②口①② |----|
口①口口 |②---|
口口③口 |③---|
67
③口②① |①②③④|
⑦④⑥⑤ |⑤⑥⑦⑧|
口⑧口口
口口口口

口⑮⑯口
口口口口
⑪口⑩⑨ |⑨⑩⑪⑫|
口⑫⑭⑬ |⑬⑭⑮⑯|
68
③口口⑥ |①②③④|
⑤⑦④② |⑤⑥⑦⑧|
口口口⑧
①口口口

口⑪⑭口
口口口口
口⑮⑩口 |⑨⑩⑪⑫|
⑬⑨⑯⑫ |⑬⑭⑮⑯|
69
①⑥⑥② |①-②-|
①③④② |③-④-|
③口口④ |⑤-⑥-|
⑤⑦⑦⑤ |--⑦-|
70
③口口④ |-①②③|
口②⑤口 |④⑤⑥⑦|
口⑥①口
⑦口口口

⑮⑨⑧口
⑪口口口
口口口⑫ |⑧⑨⑩⑪|
口⑬⑭⑩ |⑫⑬⑭⑮|
71
口⑥口④ |①②③④|
口口⑦① |⑤⑥⑦⑧|
②⑧③口
⑤口口口

⑫口口口
⑯⑩口⑬
口口⑮⑪ |⑨⑩⑪⑫|
口⑭口⑨ |⑬⑭⑮⑯|
72
⑯⑧②① |①②③④|
⑮⑦⑩⑨ |⑤⑥⑦⑧|
④⑫⑭⑬ |⑨⑩⑪⑫|
③⑪⑥⑤ |⑬⑭⑮⑯|
73
⑦④①① |①-②-|
⑦④⑤⑤ |③-④-|
②⑥⑦⑦ |⑤-⑥-|
②⑥③③ |--⑦-|
74
口③②① |①-②-|
⑧口口⑧ |③-④-|
④口口口 |⑤-⑥-|
⑤⑥⑦口 |⑦-⑧-|


不確定度: 0

最終更新:2013年08月16日 22:17