亡国のヒストリア
劇団レコード

EXTREME

Level: 9
BPM: 140
Notes: 563

1
口口口口 |----|
口口口口 |----|
口口口口 |----|
①口口口 |①---|
2
④①③② |①---|
口③①口 |②---|
口②④口 |③---|
口口口口 |④---|
3
口口④③ |①-②-|
⑤⑥口口 |③④⑤⑥--|
②口口口
①②口口

口⑦口⑨
口口⑧⑧
口⑦口口 |⑦---|
口口口口 |⑧-⑨-|
4
口④口④ |①---|
口口口口 |②---|
③口口口 |③---|
①②①② |④---|
5
口口口口 |①-②-|
①⑧③⑦ |③-④⑤|
④①⑥⑤ |⑥-⑦-|
③⑦②⑧ |⑧---|
6
④①③② |①---|
口③①口 |②---|
口②④口 |③---|
口口口口 |④---|
7
口②④口 |①-②-|
口③口口 |③-④-|
口②④口
口①③口

⑤口口⑤
口口口口
⑦口口口 |⑤---|
⑥⑦口口 |⑥-⑦-|
8
⑤④①② |①-②-|
④⑤②① |③---|
⑥口口③ |④-⑤-|
口⑥③口 |⑥---|
9
口口口口 |①-②③|
⑦⑥①⑤ |④-⑤-|
口②④③ |⑥---|
①⑤⑦⑥ |⑦---|
10
口⑥口口 |--①-|
口⑤②口 |②-③-|
口④①口 |--④-|
口口③口 |⑤-⑥-|
11
口口口口 |--①-|
口口②口 |②-③-|
口口①口
口口③口

④口④口
口口口口
⑤口⑤口 |④---|
口口口口 |⑤---|
12
口口口口 |①---|
口①口口 |②-③-|
③②③口
口①口口

口④口④
④⑤④口
口口口⑥ |④---|
口口口口 |⑤-⑥-|
13
②口④③ |①-②-|
⑤⑥口口 |③④⑤⑥--|
口口口口
口①口口

口⑦口⑨
口口⑨口
口⑦口口 |⑦---|
⑧口口口 |⑧-⑨-|
14
⑥口⑧⑦ |①-②-|
⑨⑩口⑤ |③-④-|
口④①口 |⑤-⑥-|
口口③② |⑦⑧⑨⑩--|
15
口①口口 |①---|
口口口口 |--②-|
口①口口
②口②口

口⑥口⑥
⑤口⑤口
③④③④ |③-④-|
口⑤口口 |⑤-⑥-|
16
口口口口 |--①-|
口①口口 |②-③-|
口口口②
③口③口

口⑨⑥⑤
⑦⑧口口
④⑨④口 |④--⑤⑥⑦|
口口口口 |⑧-⑨-|
17
⑤口口⑥ |①-②-|
口④⑧口 |③-④-|
⑦口②① |⑤-⑥-|
口⑦①③ |⑦-⑧-|
18
口②口口 |①-②-|
口①口① |③-④-|
口④③④
口口口口

口口口口
⑥口口⑥
口口口口 |⑤---|
口⑤口口 |⑥---|
19
④③③④ |①-②-|
口②②口 |③---|
⑤口口⑤ |④---|
①口口① |⑤---|
20
口口口口 |①---|
口①口口 |②-③-|
③②③口
口①口口

口④口④
口⑤④口
口口口⑥ |④---|
口口口口 |⑤-⑥-|
21
②口④③ |①-②-|
⑤⑥口口 |③④⑤⑥--|
口口口口
口①口口

口⑦口⑨
口口⑨口
口⑦口口 |⑦---|
⑧口口口 |⑧-⑨-|
22
⑥口⑧⑦ |①-②-|
⑨⑩⑤口 |③-④-|
口口①④ |⑤-⑥-|
口口③② |⑦⑧⑨⑩--|
23
口①口口 |①---|
口口口口 |----|
口①口口
口口口口

口④口④
③口③口
口②口② |--②-|
口③口口 |③-④-|
24
口口口口 |--①-|
口①口口 |②-③-|
口口口②
口③口口

④⑨⑥⑤
⑦⑧口口
口⑨口口 |④--⑤⑥⑦|
口口口口 |⑧-⑨-|
25
口口口⑤ |①-②-|
口④⑦口 |③-④-|
⑥口②① |--⑤-|
口⑥①③ |⑥-⑦-|
26
口⑦④③ |①-②-|
⑤⑥口① |③④⑤⑥--|
⑧⑦口⑧ |⑦---|
口口②口 |⑧---|
27
④③③④ |①-②-|
⑤②②⑤ |③---|
④口口④ |④---|
①口口① |⑤---|
28
②口口② |①---|
口口口口 |--②-|
口口口口
口①①口

口口口口
口⑤口④
④口③口 |--③-|
口③口口 |④-⑤-|
29
①口口① |①---|
口④②口 |②---|
口口③口 |③---|
口②④口 |④---|
30
口口口口 |①---|
口口口口 |----|
①口口①
口口口口

口②口口
③口②口
口④口③ |--②-|
口口口口 |③-④-|
31
口②④口 |①---|
口口③口 |②---|
口④②口 |③---|
①口口① |④---|
32
口口口① |①-②-③-|
口②口口 |④---|
口口口③
口口④口

口口口口
口⑤⑤口
口口口口 |----|
口口口口 |⑤---|
33
口口口口 |①---|
口口口口 |--②-|
口口②口
①口口①

口口口口
④口④口
口③口口 |③--④|
口⑤口⑤ |--⑤-|
34
口口口口 |--①-|
口①口① |②---|
口口口口
②口②口

口口口口
③⑥③⑥
口口⑤口 |③-④-|
口④口④ |⑤-⑥-|
35
②口②口 |--①-|
口口口口 |②---|
口①口口
口口口口

口口口口
口口③口
口④口④ |③---|
④口④口 |④---|
36
①口①口 |①---|
④①②① |②---|
②③④③ |③---|
③口③口 |④---|
37
口口①① |①-②-|
口②⑦口 |③-④-|
口口⑥③ |--⑤-|
口⑤④⑤ |⑥-⑦-|
38
口口口口 |①---|
口⑤口⑤ |②-③-|
③①③① |④---|
口④②④ |⑤---|
39
③口④口 |①-②-|
口⑤③口 |③-④-|
①⑥口② |--⑤-|
口⑦①口 |⑥-⑦-|
40
口①口① |①---|
①②①④ |②---|
③④③② |③---|
口③口③ |④---|
41
口④口④ |①-②-|
③口口口 |③-④-|
口口②口
①口①口

口口口口
口⑥口口
口口口口 |--⑤-|
⑤口⑤口 |--⑥-|
42
口②口口 |①-②-|
①口①口 |③-④-|
口④口口
③口③口

口口口口
口口⑥口
⑤口⑤口 |⑤-⑥-|
口⑦口⑦ |⑦---|
43
①⑥③② |①--②③④|
④⑤⑦⑧ |⑤-⑥-|
口⑥口口 |⑦---|
口口口⑨ |⑧-⑨-|
44
③口口⑥ |①-②-|
口③⑥口 |③---|
①②⑤④ |④-⑤-|
②①④⑤ |⑥---|
45
①口口口 |①-②③|
口口口⑤ |④-⑤-|
口②④③
口⑤口口

⑨⑧⑨⑧
⑦⑥⑦口
口口口口 |⑥-⑦-|
口口口⑥ |⑧-⑨-|
46
口口口口 |①-②-|
口口③④ |③-④-|
①②④③
②①口口

⑤口口口
口⑤口口
口口口口 |⑤---|
⑥口口⑥ |⑥---|
47
口口口口 |----|
口①口口 |----|
口口②口 |----|
口口口口 |--①②|
48
⑥口口⑥ |①--②③④|
口口③② |⑤-⑥-|
④⑤口口
口①口口

口口口口
口口口口
口口口口 |⑦---|
⑦⑧⑧⑦ |⑧---|
49
④①③② |①---|
口③①口 |②---|
口②④口 |③---|
口口口口 |④---|
50
口口④③ |①-②-|
⑤⑥口口 |③④⑤⑥--|
②口口口
①②口口

口⑦口⑨
口口⑧⑧
口⑦口口 |⑦---|
口口口口 |⑧-⑨-|
51
口④口④ |①---|
口口口口 |②---|
③口口口 |③---|
①②①② |④---|
52
口口口口 |①-②-|
①⑧③⑦ |③-④⑤|
④①⑥⑤ |⑥-⑦-|
③⑦②⑧ |⑧---|
53
④①③② |①---|
口③①口 |②---|
口②④口 |③---|
口口口口 |④---|
54
口②④口 |①-②-|
口③口口 |③-④-|
口②④口
口①③口

⑤口口⑤
口口口口
⑦口口口 |⑤---|
⑥⑦口口 |⑥-⑦-|
55
⑤④①② |①-②-|
④⑤②① |③---|
⑥口口③ |④-⑤-|
口⑥③口 |⑥---|
56
口口口口 |①-②③|
口口①⑤ |④-⑤-|
口②④③
①⑤口口

口口口口
⑦⑥口口
口⑧口口 |⑥---|
口口⑦⑥ |⑦-⑧-|
57
⑦口口⑦ |①-②③|
⑥②①⑥ |④-⑤-|
口口③口 |⑥---|
①④⑤口 |⑦---|
58
口口口口 |①②③④|
口④①④ |⑤-⑥-|
口②③②
⑤⑥⑤口

口⑦口⑦
口口口口
口⑧口口 |⑦---|
口口口口 |⑧---|


不確定度: 0

最終更新:2013年08月16日 22:29