以心伝心
Little Blue boX

EXTREME

Level: 8
BPM: 220
Notes: 600

1
口口口口 |------|
口口口口 |------|
口口口口 |------|
口口口口 |------|
2
①口口口 |①-----|
③口口④ |②-----|
口②②口 |③---④-|
⑤口口口 |----⑤-|
3
⑤口③⑥ |①---②-|
口口①口 |③---④-|
②④④口 |----⑤-|
口口口口 |⑥-----|
4
⑤口口口 |①-----|
口②②口 |②-----|
③口口④ |③---④-|
口口①① |----⑤-|
5
口口③① |①---②-|
②口④④ |③---④-|
口口⑤⑤ |----⑤-|
口口⑥⑥ |----⑥-|
6
①①⑤⑤ |①-----|
③口口口 |②-----|
②②口口 |③---④-|
口④口口 |⑤-----|
7
①④口口 |①---②-|
口口②② |----③-|
⑥口③③ |④---⑤-|
口口⑤⑤ |----⑥-|
8
③口①① |①-----|
口③口口 |②-----|
口②④口 |③-----|
②口口④ |④-----|
9
口③③① |①-----|
②口①② |②-----|
④口口口 |③-----|
口④口口 |④-----|
10
①④④① |①-----|
口①①② |②-----|
口口②③ |③-----|
口口③口 |----④-|
11
口口口② |----①-|
口口②口 |----②-|
③口口口 |③-----|
①③口① |------|
12
①口口口 |①-----|
②①口口 |②-----|
③②口口 |③-----|
④③口④ |----④-|
13
口①①口 |----①-|
②口口口 |----②-|
④②口③ |③-----|
口④③口 |④-----|
14
①④④① |①-----|
口①①② |②-----|
口口②③ |③-----|
口口③口 |----④-|
15
口口口② |----①-|
口口②口 |----②-|
③口口口 |③-----|
①③口① |------|
16
①口口口 |①-----|
②①口口 |②-----|
③②口口 |③-----|
④③口④ |----④-|
17
口①①口 |----①-|
②口口口 |----②-|
④②口③ |③-----|
口④③口 |④-----|
18
①④④① |①-----|
口①①② |②-----|
口口②③ |③-----|
口口③口 |----④-|
19
口口口② |----①-|
口口②口 |----②-|
③口口口 |③-----|
①③口① |------|
20
①口口口 |①-----|
②①口口 |②-----|
③②口口 |③-----|
④③口④ |----④-|
21
口①①口 |----①-|
②口口口 |----②-|
④②口③ |③-----|
口④③口 |④-----|
22
①④④① |①-----|
口①①② |②-----|
口口②③ |③-----|
口口③口 |----④-|
23
口口口② |----①-|
口口②口 |----②-|
③口口口 |③-----|
①③口① |------|
24
①口口口 |①-----|
②①口口 |②-----|
③②口口 |③-----|
④③口④ |----④-|
25
④①①口 |----①-|
②口⑤口 |----②-|
口②口③ |③---④-|
⑥口③口 |⑤---⑥-|
26
口③②口 |①-----|
③口口② |②-----|
④口①口 |③-----|
口④口口 |④-----|
27
②口②③ |①-----|
口口口口 |----②-|
口口口① |------|
口口①口 |----③-|
28
口④⑤口 |①---②-|
④①口⑤ |③-----|
口③口口 |④-----|
口口口② |⑤-----|
29
口③口口 |①-----|
口②②口 |----②-|
口口口① |------|
口口①口 |----③-|
30
②口①口 |①-----|
②③口口 |②-----|
口③④口 |③-----|
口口④口 |④-----|
31
②③③② |①-----|
口口口① |----②-|
④口口① |----③-|
口④口口 |----④-|
32
②口口② |①-----|
口口口口 |------|
口口口① |②-----|
口口①口 |------|
33
③②口口 |①-----|
②②④口 |----②-|
②②①① |----③-|
⑤口①① |④---⑤-|
34
口③②口 |①-----|
③口口② |②-----|
④口①口 |③-----|
口④口口 |④-----|
35
②口②③ |①-----|
口口口口 |----②-|
口口口① |------|
口口①口 |----③-|
36
口③④口 |①-----|
③①口④ |②-----|
口口口口 |③-----|
②口口② |④-----|
37
口④口口 |①-----|
口②③口 |②---③-|
口②③① |------|
口口①口 |----④-|
38
②口①口 |①-----|
口②口口 |②-----|
口③④口 |③-----|
③口口④ |④-----|
39
口②②① |①-----|
④口①④ |----②-|
②④④② |----③-|
口③③口 |----④-|
40
口口口口 |------|
口口口口 |------|
口口口口 |------|
口口口口 |------|
41
口口口口 |------|
口口口② |------|
口口口口 |①-----|
口①口口 |②-----|
42
①口口口 |①-----|
口口口口 |------|
口口口口 |------|
口口口② |②-----|
43
②口④① |①-----|
口④④口 |②-----|
口口口口 |③-----|
③口口口 |④-----|
44
口口口口 |①-----|
②口口口 |------|
②口①口 |------|
口①①① |②-----|
45
②②③③ |①-----|
口②③① |------|
口口口① |②-----|
口口口口 |③-----|
46
口口②② |①-----|
口口口口 |------|
口口口口 |------|
口①①口 |②-----|
47
口口口口 |①-----|
③④口口 |②-----|
③④口口 |③-----|
①①②② |④-----|
48
口口口口 |①-----|
口口①② |②-----|
口口①② |------|
口口口口 |------|
49
口①口口 |------|
①口②口 |------|
口②口口 |①-----|
口口口口 |②-----|
50
口口口口 |①-----|
口口口口 |------|
口口口① |------|
②口①口 |②-----|
51
口④④③ |①-----|
口口②口 |②-----|
口①口口 |③-----|
口口口口 |④-----|
52
②口口口 |①-----|
口口口① |------|
口②口① |------|
口口口口 |②-----|
53
口口口① |①-----|
③口口口 |------|
②③①口 |②-----|
口②口口 |③-----|
54
①②②口 |①-----|
口①口口 |②-----|
口口口③ |------|
口口③口 |③-----|
55
口口口② |①-----|
口口②① |②-----|
口口①口 |------|
口③③口 |③-----|
56
口②②口 |①-----|
①口口① |------|
口①①口 |------|
口口口口 |②-----|
57
②③③② |①-----|
口口口口 |------|
③②②③ |②-----|
①口口① |③-----|
58
②口口② |①-----|
①①①① |------|
口②②口 |------|
口口口口 |②-----|
59
口①①口 |①-----|
③③②② |②-----|
①口口① |③-----|
口④④口 |④-----|
60
①口口① |①-----|
②口口② |------|
口口口口 |②-----|
口口口口 |------|
61
口口口口 |①-----|
口口口口 |------|
①口口① |②-----|
②口口② |------|
62
口①④口 |①-----|
②口口③ |②-----|
③口口② |③-----|
口④①口 |④-----|
63
①①口口 |------|
口口口口 |------|
口口口口 |------|
口口口口 |①-----|
64
口口③③ |①-----|
口口口口 |②-----|
①①④④ |③-----|
口②②口 |④-----|
65
口口口口 |①-----|
口口口口 |------|
口口口口 |②-----|
①②②① |------|
66
①口口① |①-----|
口口口口 |------|
口①①② |------|
口口②口 |②-----|
67
③④④① |①-----|
口③①口 |②-----|
②口口口 |③-----|
口②口口 |④-----|
68
口口口口 |①-----|
①②②① |------|
②①①② |②-----|
口口口口 |------|
69
口口口口 |①-----|
①②②① |------|
口②②口 |②-----|
①口口① |------|
70
口①④口 |①-----|
②口口③ |②-----|
③口口② |③-----|
口④①口 |④-----|
71
口口口口 |------|
①口口口 |------|
①口口口 |------|
口口口口 |①-----|
72
口口④口 |①-----|
口①②③ |②-----|
口①②③ |③-----|
口口④口 |④-----|
73
口①口口 |①-----|
口②②口 |------|
口②②口 |②-----|
口①口口 |------|
74
口口③口 |①-----|
口②口口 |------|
①口③① |②-----|
口②口口 |③-----|
75
①口口② |------|
口①②口 |------|
口口口口 |①-----|
口口口口 |②-----|
76
口②口③ |------|
①②口③ |①-----|
①口②口 |②-----|
①①口口 |③-----|
77
口口口口 |①-----|
②②②口 |------|
②①口口 |②-----|
②口①口 |------|
78
口②②口 |①-----|
③口③口 |------|
③口③口 |②-----|
口①①口 |③-----|
79
口①①口 |------|
口②口② |------|
口②口② |①-----|
口口口口 |②-----|
80
口②口② |------|
②口②口 |①-----|
口口口口 |②-----|
③①①③ |③-----|
81
①口①口 |①-----|
口①口① |------|
口口口口 |②-----|
口②②口 |------|
82
①④④① |①-----|
口①①② |②-----|
口口②③ |③-----|
口口③口 |----④-|
83
口口口② |----①-|
口口②口 |----②-|
③口口口 |③-----|
①③口① |------|
84
①口口口 |①-----|
②①口口 |②-----|
③②口口 |③-----|
④③口④ |----④-|
85
口①①口 |----①-|
②口口口 |----②-|
口②口③ |③-----|
口口③口 |------|
86
①④④① |①-----|
口①①② |②-----|
口口②③ |③-----|
口口③口 |----④-|
87
口口口② |----①-|
口口②口 |----②-|
③口口口 |③-----|
①③口① |------|
88
①口口口 |①-----|
②①口口 |②-----|
③②口④ |③-----|
口③④口 |----④-|
89
⑧①②⑧ |①-②-③-|
口③④口 |④-⑤-⑥-|
口⑤⑥口 |⑦-----|
口⑦口口 |⑧-----|


不確定度: 0

タグ:

+ タグ編集
  • タグ:

このサイトはreCAPTCHAによって保護されており、Googleの プライバシーポリシー利用規約 が適用されます。

最終更新:2013年04月07日 23:42