TYCOON
SOUND HOLIC feat. Nana Takahashi

EXTREME

Level: 9
BPM: 170
Notes: 713

1
口口口口 |----|
口口口口 |----|
口口口口 |----|
口口口口 |----|
2
口口口口 |①---|
口口口口 |----|
②口口② |②---|
①口口① |----|
3
口口口口 |①---|
①②口① |----|
口口②口 |②---|
口口口口 |----|
4
口口口口 |①---|
口口口口 |----|
②口口② |②---|
①口口① |----|
5
口口口口 |①---|
①②口① |----|
口口②口 |②---|
口口口口 |----|
6
口口口口 |①---|
口口口口 |----|
②口口② |②---|
①①①① |----|
7
口口口口 |①---|
①③③① |②--③|
⑤口②⑥ |--④-|
⑦口④⑧ |⑤⑥⑦⑧|
8
口⑤②口 |①②--|
⑤⑥③② |③---|
口①口口 |④⑤--|
口口④口 |⑥---|
9
④口②口 |①②--|
口口③② |③--④|
口口口④
口①口口

口口口⑤
口口口口
⑤⑥⑦口 |--⑤-|
口⑧⑨口 |⑥⑦⑧⑨|
10
口①②口 |①---|
①口口② |②---|
口口口口
口口口口

④⑤口④
⑤口口口
口口口口 |③-④-|
③口口③ |--⑤-|
11
口口①口 |--①-|
口口口① |--②③|
口口③口
口②口口

口口口口
⑦⑤⑤⑦
④口口④ |④-⑤-|
⑥口口⑥ |⑥-⑦-|
12
①③①③ |--①-|
口口口口 |②-③-|
口②口②
口口口口

⑦口口口
⑧⑤口⑤
④口④口 |④-⑤-|
口⑥口⑥ |⑥-⑦⑧|
13
口口①③ |①---|
⑦⑧⑨口 |②--③|
④⑤口⑥ |-④⑤⑥|
②口口口 |-⑦⑧⑨|
14
④⑤②④ |①---|
⑤口口② |②---|
口口口口 |③-④-|
③①①③ |--⑤-|
15
口口①⑤ |--①-|
口口口① |--②③|
②③④口 |④-⑤-|
⑥口口⑦ |⑥-⑦-|
16
①②③口 |①②③④|
口④⑤⑥ |⑤⑥⑦⑧|
⑦⑧口口
口口口口

⑬⑭⑮口
⑯口口口
口口⑨口 |⑨⑩⑪⑫|
口⑩⑪⑫ |⑬⑭⑮⑯|
17
⑤口口⑤ |①②③-|
口①②③ |----|
口口口口 |--④-|
④口口④ |--⑤-|
18
口口口口 |①---|
③口①③ |②-③-|
⑤口口⑤ |--④-|
口②④口 |--⑤-|
19
口③口口 |--①-|
口口②口 |②-③-|
口④⑤口 |----|
口①口口 |④-⑤-|
20
③④④③ |①---|
口口口口 |②-③-|
口⑤⑤口 |--④-|
①口②① |--⑤-|
21
口口口口 |----|
口口口口 |----|
口①②口 |----|
口口口口 |①-②-|
22
口①③口 |①---|
口口口口 |②-③-|
③口④① |----|
口②口口 |--④-|
23
口①③口 |①---|
口口口口 |②-③-|
③口口①
口②口口

口④口口
口口⑤口
口口口口 |----|
口口口口 |④-⑤-|
24
口口口口 |①---|
口口口② |--②-|
③①①④ |--③-|
口口④口 |--④-|
25
①口口① |----|
口口口口 |----|
口口口口 |--①-|
口②②口 |--②-|
26
口⑥口口 |①②③-|
口④⑤口 |④⑤-⑥|
①②③⑤
口口口③

口口⑦口
口口口⑦
口⑩⑪口 |⑦-⑧⑨|
口⑧⑨口 |-⑩⑪-|
27
口④⑤口 |①②③-|
①②③⑤ |④⑤-⑥|
口口口③
口⑥口口

口口口口
口⑩⑪口
口⑧⑨口 |⑦-⑧⑨|
口口⑦口 |-⑩⑪-|
28
①②③口 |①②③-|
口口口口 |④⑤-⑥|
口⑥口口
口④⑤口

口⑩⑪口
口⑧⑨⑪
口口⑦口 |⑦-⑧⑨|
口口口口 |-⑩⑪-|
29
口口口口 |①②③-|
口⑥口口 |④⑤-⑥|
口④⑤口
①②③口

⑧口口⑧
口口⑦口
口口口⑦ |⑦--⑧|
⑨⑨⑨⑨ |--⑨-|
30
⑤②②⑤ |①-②-|
①④④① |③-④-|
③⑥⑥③ |⑤---|
口⑦⑦口 |⑥-⑦-|
31
②②②② |--①-|
口口口口 |②---|
①口口① |----|
口口④③ |③-④-|
32
口口⑥⑥ |①---|
口⑤口⑤ |--②-|
口③④③ |③-④-|
②①口口 |⑤-⑥-|
33
口口口口 |----|
口口口口 |----|
口口②口 |----|
口①口口 |①-②-|
34
②口②口 |①---|
①③口① |--②-|
口口④④ |③-④-|
⑤口口口 |--⑤-|
35
③③④④ |①---|
①口②① |--②-|
口②口口 |--③-|
④④③③ |--④-|
36
口口口口 |----|
口口口口 |----|
口口口口 |----|
口口口口 |----|
37
⑤⑤⑤⑤ |①---|
④口②④ |②-③-|
③③③③ |--④-|
①①①① |--⑤-|
38
③口口口 |----|
②口④④ |①---|
①口③口 |②---|
口口口口 |③-④-|
39
口④口口 |①---|
口③口⑤ |②---|
口②口④ |③---|
口①口口 |④-⑤-|
40
⑦口⑧⑤ |①-②-|
⑤口③⑥ |③-④-|
③口④⑤ |⑤-⑥-|
①口③② |⑦-⑧-|
41
口口口口 |①-②-|
口口③口 |③-④-|
口③④口
口①③②

口⑦口⑤
口⑤口⑥
口口口⑤ |⑤-⑥-|
口口口⑧ |⑦-⑧-|
42
口口①口 |①---|
口口口口 |②-③-|
②口②口
①口③口

⑥口⑦⑦
④口⑤⑤
口口口口 |④-⑤-|
口口口口 |⑥-⑦-|
43
口⑥口⑦ |①---|
口④⑤⑦ |②-③-|
口②①② |④-⑤-|
口①口③ |⑥-⑦-|
44
口口①口 |①---|
口口口口 |②-③-|
②口③③
①口②口

⑥口⑦⑦
④口⑤⑤
口口口口 |④-⑤-|
口口口口 |⑥-⑦-|
45
口⑥口口 |①---|
口④⑤③ |②-③-|
口②⑦⑦ |④-⑤-|
口①①② |⑥-⑦-|
46
④口口口 |①---|
③口⑤⑤ |②---|
②口④④ |③---|
①口口口 |④-⑤-|
47
口④口口 |①---|
口③口⑤ |②---|
口②口④ |③---|
口①口口 |④-⑤-|
48
⑦口⑧⑤ |①-②-|
⑤口③⑥ |③-④-|
③口④⑤ |⑤-⑥-|
①口③② |⑦-⑧-|
49
口口口口 |①-②-|
口口③口 |③-④-|
口③④口
口①③②

口⑦口⑤
口⑤口⑥
口口口⑤ |⑤-⑥-|
口口口⑧ |⑦-⑧-|
50
口口①口 |①---|
口口口口 |②-③-|
②口②口
①口③口

⑥口⑦⑦
④口⑤⑤
口口口口 |④-⑤-|
口口口口 |⑥-⑦-|
51
口⑥口⑦ |①---|
口④⑤口 |②-③-|
口②①② |④-⑤-|
口①口③ |⑥-⑦-|
52
⑤口④口 |①---|
④口③④ |②-③-|
②口⑥① |④---|
①口①口 |⑤-⑥-|
53
口⑥⑦⑦ |①---|
口④⑥② |②-③-|
口②⑤③ |④-⑤-|
口①①① |⑥-⑦-|
54
口口口口 |①---|
口口口口 |②---|
口口口口 |③---|
①②③④ |④---|
55
口口口口 |①---|
④③口④ |②---|
口口②口 |③---|
口①口口 |④---|
56
⑨⑦⑧⑩ |①②③④|
⑪⑤⑥⑫ |⑤⑥⑦⑧|
⑬③④⑭ |⑨⑩⑪⑫|
⑮①②⑯ |⑬⑭⑮⑯|
57
⑦⑨⑩⑧ |①②③④|
⑬⑤⑥⑭ |⑤⑥⑦⑧|
⑪③④⑫ |⑨⑩⑪⑫|
⑮①②⑯ |⑬⑭⑮⑯|
58
口⑦⑧口 |①②③④|
口③④口 |⑤⑥⑦⑧|
口①②口
口⑤⑥口

口口口口
⑪口口⑫
⑨⑮⑯⑩ |⑨⑩⑪⑫|
⑬口口⑭ |⑬⑭⑮⑯|
59
③⑨⑩④ |①②③④|
⑪①②⑫ |⑤⑥⑦⑧|
⑦⑬⑭⑧ |⑨⑩⑪⑫|
⑮⑤⑥⑯ |⑬⑭⑮⑯|
60
①⑮⑯② |①②③④|
⑬③④⑭ |⑤⑥⑦⑧|
⑤⑨⑩⑥ |⑨⑩⑪⑫|
⑪⑦⑧⑫ |⑬⑭⑮⑯|
61
口口口口 |①②③④|
口①②口 |⑤⑥⑦⑧|
③⑦⑧④
口⑤⑥口

⑪口口⑫
⑨⑬⑭⑩
口口口口 |⑨⑩⑪⑫|
⑮口口⑯ |⑬⑭⑮⑯|
62
口③④口 |①②③④|
⑦口口⑥ |⑤⑥⑦⑧|
①⑤口②
口口⑧口

⑬口口⑩
口⑨口口
⑮口⑫⑯ |⑨⑩⑪⑫|
⑪口口⑭ |⑬⑭⑮⑯|
63
口①①口 |①---|
口口口口 |----|
口口口口 |----|
口口口口 |----|
64
口口口口 |①---|
口口口口 |----|
口口口口
口①①口

②④口③
④②③口
口③②④ |②--③|
③口④② |--④-|
65
口口①口 |①---|
口口口① |----|
①口口口
口①口口

口口口口
口口口③
口②口② |----|
口口口口 |②-③-|
66
⑦口⑧⑤ |①-②-|
⑤口③⑥ |③-④-|
③口④⑤ |⑤-⑥-|
①口③② |⑦-⑧-|
67
口口口口 |①-②-|
口口③口 |③-④-|
口③④口
口①③②

口⑦口⑤
口⑤口⑥
口口口⑤ |⑤-⑥-|
口口口⑧ |⑦-⑧-|
68
⑥口①⑦ |①---|
④口⑤⑤ |②-③-|
②口②口 |④-⑤-|
①口③口 |⑥-⑦-|
69
口⑥①⑦ |①---|
口④口⑥ |②-③-|
口②②⑤ |④-⑤-|
口①③口 |⑥-⑦-|
70
⑦口④⑧ |①-②-|
⑤口③⑦ |③-④-|
③口②⑥ |⑤-⑥-|
①口口口 |⑦-⑧-|
71
⑥⑥⑥⑥ |①---|
口③③口 |②---|
⑤②口⑤ |③-④-|
④①口④ |⑤-⑥-|
72
⑦⑧⑨⑩ |①-②-|
①口口② |③-④-|
⑤③④⑥ |⑤-⑥-|
口口口口 |⑦⑧⑨⑩|
73
⑨口口⑩ |①-②-|
②口口④ |③-④-|
⑤⑥⑦⑧ |⑤⑥⑦⑧|
①口口③ |⑨-⑩-|
74
⑦①②口 |①-②-|
⑨⑨⑧⑧ |③④⑤⑥|
口口口口 |⑦-⑧-|
③④⑤⑥ |⑨---|
75
④②②④ |①-②-|
口口口口 |③-④-|
①口口① |----|
③口口③ |----|

不確定度: 0

最終更新:2014年08月01日 23:09