sister's noise
fripSide

EXTREME

Level: 9
BPM: 144
Notes: 590

1
口口口口 |----|
口口口口 |----|
口口口口 |----|
口口口口 |----|
2
⑤①②⑤ |①--②|
①口口② |--③-|
④口口③ |-④--|
⑥④③⑥ |⑤-⑥-|
3
口②①口 |①--②|
②⑤⑤① |--③-|
③⑥⑥④ |-④--|
口③④口 |⑤-⑥-|
4
⑤④③⑤ |①--②|
④口口③ |--③-|
①口口② |-④--|
⑥①②⑥ |⑤-⑥-|
5
⑥③④⑥ |①--②|
③口口④ |--③-|
②口口① |-④--|
⑤②①⑤ |⑤-⑥-|
6
⑧①③⑧ |①-②③|
①②口③ |-④⑤-|
⑦④⑥⑤ |⑥⑦--|
⑨⑦⑤⑨ |⑧-⑨-|
7
⑧③①⑧ |①-②③|
③口②① |-④⑤-|
⑤⑥④⑦ |⑥⑦--|
⑨⑤⑦⑨ |⑧-⑨-|
8
口③④口 |①②③④|
口①②口 |⑤⑥⑦⑧|
口⑦⑧口
口⑤⑥口

⑬⑭⑮⑯
⑪口口⑫
⑨口口⑩ |⑨⑩⑪⑫|
⑰⑱⑲⑳ |⑬⑭⑮⑯⑰⑱⑲⑳|
9
口口口口 |①--②|
③①①③ |--③-|
②③③② |----|
口口口口 |----|
10
②②①① |①---|
③口口④ |②-③④|
①口口②
③①②④

口口⑥口
口⑤⑦口
口⑦⑤口 |--⑤-|
口⑥口口 |⑥-⑦-|
11
口口口① |①--②|
②口口口 |--③-|
口口口口 |④---|
④④③③ |----|
12
③①②④ |①---|
①口口② |②-③④|
③口口④
②②①①

口⑤口口
口⑤⑥口
口口⑥口 |--⑤-|
⑦⑦口口 |⑥-⑦-|
13
③口②③ |①--②|
②口口② |--③-|
口②口口
口口①①

口口口口
口④④口
④口口④ |④---|
口⑤⑥口 |--⑤⑥|
14
口口口口 |①---|
口②②口 |----|
口③③口 |②---|
口口口① |③---|
15
②口①④ |①---|
口⑥口① |②-③-|
①口⑦口 |④-⑤-|
⑤①口③ |⑥-⑦-|
16
②①口口 |①-②-|
①口③口 |③-④-|
口口口①
④口①口

口口⑤口
口⑦⑧⑤
⑤口口口 |⑤-⑥-|
口⑤口⑥ |⑦-⑧-|
17
②①口③ |①-②③|
①口口口 |----|
口②③① |----|
口口①口 |----|
18
口口口② |①-②-|
③④口口 |③④--|
口口口口
①①口口

口⑨口口
口口口口
口口⑥⑤ |⑤⑥-⑦|
⑦⑧口口 |⑧-⑨-|
19
②口口口 |①-②-|
口口④③ |③④--|
口口口口
口口①①

口口⑨口
口口口口
⑤⑥口口 |⑤⑥-⑦|
口口⑧⑦ |⑧-⑨-|
20
③③④口 |①--②|
①②口口 |--③-|
⑤口口口 |----|
②①口口 |④-⑤-|
21
口口③③ |①--②|
口口①② |--③-|
口口口口 |----|
口口②① |----|
22
口口③③ |①--②|
口口口口 |--③-|
口口②①
口口①②

口⑤口口
⑤口口口
口口口④ |----|
口口④口 |④-⑤-|
23
口口①① |①--②|
口②②口 |--③-|
③③口口 |----|
口口口口 |----|
24
③③口口 |①--②|
口口口口 |--③-|
②①口口
①②口口

口口④口
口口口口
口口口口 |----|
⑤口口口 |④-⑤-|
25
③口口③ |①---|
口②口① |②--③|
口口①口
口①口②

口口口口
④口口⑤
④⑥口⑤ |--④-|
⑥口口口 |⑤-⑥-|
26
③口口④ |①--②|
口③④口 |--③-|
口口①口 |④---|
口②②① |----|
27
口①口口 |----|
口口②口 |----|
①口口口 |----|
口②口口 |①-②-|
28
口口③口 |①--②|
②口口⑤ |--③-|
⑥④口① |④--⑤|
口口①口 |--⑥-|
29
④口口④ |①--②|
口③②口 |--③-|
口②③口 |④---|
口①①口 |----|
30
口口①口 |①--②|
②③③口 |--③-|
口口口①
口②口口

口口口口
口口口⑥
⑤④④⑥ |④--⑤|
⑤口口口 |--⑥-|
31
①①②② |①--②|
口④③口 |--③-|
口③④口 |④---|
口口口口 |----|
32
①口口① |①--②|
口③②口 |--③-|
口口口口
②口口③

⑥⑤⑤⑥
口口口口
口④④口 |④--⑤|
口口口口 |--⑥-|
33
口口口口 |①--②|
②口口③ |--③-|
①②③① |④---|
⑤④④口 |--⑤-|
34
②口口① |①-②-|
口④⑤口 |③-④⑤|
口口口口
口口口③

⑧口口口
口口口⑦
⑥口口口 |--⑥-|
口口口口 |⑦-⑧-|
35
口①口① |①--②|
②口②口 |--③-|
口③③口 |④---|
口④④口 |----|
36
②口口① |①--②|
③②①③ |--③-|
③①②③ |----|
①口口② |----|
37
②②①① |①---|
③口口④ |②-③④|
①口口②
③①②④

口口⑥口
口⑤⑦口
口⑦⑤口 |--⑤-|
口⑥口口 |⑥-⑦-|
38
口口口① |①--②|
②口口口 |--③-|
口口口口 |④---|
④④③③ |----|
39
③①②④ |①---|
①口口② |②-③④|
③口口④
②②①①

口⑤口口
口⑤⑥口
口口⑥口 |--⑤-|
⑦⑦口口 |⑥-⑦-|
40
③口②③ |①--②|
②④④② |--③-|
④②口④ |④---|
⑤⑥①① |--⑤⑥|
41
②⑥⑥② |①---|
④口口⑤ |②--③|
③④⑤③ |--④-|
口口①口 |⑤-⑥-|
42
②⑥⑥② |①---|
⑤④③⑤ |②--③|
口③④口 |--④-|
口①①口 |⑤-⑥-|
43
口口口口 |①---|
口③②口 |--②③|
口口口口
口①①口

口⑥口⑤
口口口口
⑦口④口 |④-⑤-|
⑤口⑥⑦ |⑥-⑦-|
44
②口③③ |①--②|
④④①② |--③④|
口①口口 |⑤---|
口口⑤⑤ |----|
45
②②①① |①---|
③口口④ |②-③④|
①口口②
③①②④

口口⑥口
口⑤⑦口
口⑦⑤口 |--⑤-|
口⑥口口 |⑥-⑦-|
46
口口口① |①--②|
②口口口 |--③-|
口口口口 |④---|
④④③③ |----|
47
③①②④ |①---|
①口口② |②-③④|
③口口④
②②①①

口⑤口口
口⑤⑥口
口口⑥口 |--⑤-|
⑦⑦口口 |⑥-⑦-|
48
③口②③ |①--②|
②口口② |--③-|
口②口口
口口①①

口口口口
口④④口
④口口④ |④---|
口⑤⑥口 |--⑤⑥|
49
口口口口 |①---|
口②②口 |----|
口③③口 |②---|
口口口① |③---|
50
②口①④ |①---|
口⑥口① |②-③-|
①口⑦口 |④-⑤-|
⑤①口③ |⑥-⑦-|
51
②①口口 |①-②-|
①口③口 |③-④-|
口口口①
④口①口

口口⑤口
口⑦⑧⑤
⑤口口口 |⑤-⑥-|
口⑤口⑥ |⑦-⑧-|
52
②①⑤口 |①-②③|
①口口⑤ |----|
④口③① |----|
口④①口 |④-⑤-|
53
⑦①⑤⑥ |①-②-|
①⑤⑧⑤ |③-④-|
⑤④④① |⑤-⑥-|
②口①③ |⑦-⑧-|
54
口③口口 |①-②③|
口③口口 |----|
②②②② |----|
①①①① |----|
55
口口口口 |①---|
口①①口 |----|
口①①口 |----|
口口口口 |----|

不確定度: 0

最終更新:2014年08月01日 23:06