つぼみ
達見 恵 featured by 佐野宏晃

BASIC

Level: 3
BPM: 184
Notes: 173

1
口口口口 |----|
口口口口 |----|
口口口口 |----|
口口口口 |----|
2
口口口口 |----|
口口口口 |----|
口口口口 |----|
口口口口 |----|
3
口口口口 |①---|
口①①口 |----|
口口口口 |----|
口口口口 |----|
4
口口口口 |①---|
口口口口 |----|
口①①口 |----|
口口口口 |----|
5
口口口口 |①---|
口①①口 |----|
口口口口 |----|
口口口口 |----|
6
口口口口 |----|
口口口口 |----|
口口口口 |----|
口口口口 |----|
7
口口口口 |①---|
口①①口 |----|
口口口口 |----|
口口口口 |----|
8
口口口口 |①---|
口口口口 |----|
口①①口 |----|
口口口口 |----|
9
口口口口 |①---|
④③②① |②---|
口口口口 |③---|
口口口口 |④---|
10
口口口口 |①---|
口口口口 |----|
口①①口 |----|
口口口口 |----|
11
口口口口 |----|
口口口口 |----|
口口口口 |----|
口口口口 |----|
12
口口口口 |①---|
口口①口 |--②-|
口②③口 |----|
口口口口 |--③-|
13
口口口口 |----|
口①②口 |①---|
口③口口 |②---|
口口口口 |--③-|
14
口口口口 |----|
口②口口 |--①-|
口口①口 |----|
口口口口 |②---|
15
口口口口 |①---|
口口①口 |--②-|
口②③口 |----|
口口口口 |--③-|
16
口②②口 |----|
口①口口 |①---|
口口口口 |----|
口口口口 |--②-|
17
口口口口 |----|
口口口口 |----|
口口口口 |----|
口口口口 |----|
18
口口口口 |①---|
口①①口 |----|
口口口口 |----|
口口口口 |----|
19
口口口口 |①---|
口口口口 |----|
口口①口 |----|
口口口口 |----|
20
口口口口 |①---|
口口口口 |----|
口①口口 |----|
口口口口 |----|
21
口口口口 |①---|
口口口口 |----|
①口口口 |----|
口口口口 |----|
22
口口口口 |①---|
口①①口 |----|
口口口口 |----|
口口口口 |----|
23
口口口口 |①---|
口口口口 |----|
口①口口 |----|
口口口口 |----|
24
口口口口 |①---|
口口口口 |----|
口口①口 |----|
口口口口 |----|
25
口口口口 |①---|
口口口口 |----|
口口口① |----|
口口口口 |----|
26
口口口口 |①---|
口①①口 |----|
口口口口 |----|
口口口口 |----|
27
口口口口 |①---|
口口口口 |----|
口口①口 |----|
口口口口 |----|
28
口口口口 |①---|
口口口口 |----|
口①口口 |----|
口口口口 |----|
29
口口口口 |①---|
口口口口 |----|
①口口口 |----|
口口口口 |----|
30
口口口口 |①---|
口①①口 |----|
口口口口 |----|
口口口口 |----|
31
口口口口 |①---|
口口口口 |----|
口①①口 |----|
口口口口 |----|
32
口口口口 |①---|
①口口① |----|
口口口口 |----|
口口口口 |----|
33
口口口口 |①---|
口口口口 |----|
①口口① |----|
口口口口 |----|
34
口口口口 |①---|
④③②① |②---|
口口口口 |③---|
口口口口 |④---|
35
口口口口 |----|
口口口口 |----|
口口口口 |----|
口口口口 |----|
36
口口口口 |①---|
口口口口 |----|
口①①口 |----|
口口口口 |----|
37
口口口口 |①---|
口口口口 |----|
口口口口 |----|
口①①口 |----|
38
口口口口 |①---|
①②③④ |②---|
口口口口 |③---|
口口口口 |④---|
39
口口口口 |----|
口口口口 |----|
口口口口 |----|
口口口口 |----|
40
口口口口 |①---|
口①①口 |----|
口②②口 |----|
口口口口 |②---|
41
口口口口 |----|
口口口口 |----|
口口口口 |----|
口口口口 |----|
42
口口口口 |①---|
口①①口 |----|
口口口口 |----|
口口口口 |----|
43
口口口口 |①---|
①口口① |----|
①口口① |----|
口口口口 |----|
44
口口口口 |①---|
口①①口 |----|
口口口口 |----|
口口口口 |----|
45
口口口口 |①---|
口口口口 |②---|
④③②① |③---|
口口口口 |④---|
46
口口口口 |①---|
口①①口 |----|
口口口口 |----|
口口口口 |----|
47
口①①口 |①---|
口口口口 |----|
口口口口 |----|
口口口口 |----|
48
口口口口 |①---|
口①①口 |----|
口口口口 |----|
口口口口 |----|
49
口口口口 |①---|
口口口口 |----|
口①①口 |----|
口口口口 |----|
50
口口口口 |①---|
口口口口 |----|
口口口口 |----|
口①①口 |----|
51
口口口口 |①---|
口口口口 |----|
口①①口 |----|
口口口口 |----|
52
口口口口 |①---|
①②③④ |②---|
口口口口 |③---|
口口口口 |④---|
53
口口口口 |①---|
口口口口 |②---|
④③②① |③---|
口口口口 |④---|
54
口口口口 |①---|
口①①口 |----|
口口口口 |----|
口口口口 |----|
55
口口口口 |①---|
口口口口 |----|
口①①口 |----|
口口口口 |----|
56
口口口口 |①---|
④③②① |②---|
口口口口 |③---|
口口口口 |④---|
57
口口口口 |①---|
口口口口 |②---|
①②③④ |③---|
口口口口 |④---|
58
口口口口 |①---|
④③②① |②---|
口口口口 |③---|
口口口口 |④---|
59
口口口口 |①---|
口口口口 |②---|
①②③④ |③---|
口口口口 |④---|
60
口口口② |①---|
口①口④ |②---|
口③口口 |③---|
口口口口 |④---|
61
口口④口 |①---|
③口口口 |②---|
口口口② |③---|
口①口口 |④---|
62
口口口口 |①---|
口口②口 |②---|
①口④口 |③---|
③口口口 |④---|
63
口口口口 |①---|
①②③④ |②---|
口口口口 |③---|
口口口口 |④---|
64
口口口口 |①---|
口②②口 |----|
口①①口 |②---|
口口口口 |----|
65
口口口口 |①---|
口口口口 |②---|
④③②① |③---|
口口口口 |④---|
66
口口口口 |①---|
口①①口 |----|
口口口口 |----|
口口口口 |----|
67
口口口口 |----|
口口口口 |----|
口口口口 |----|
口口口口 |----|
68
口口口口 |①---|
④③②① |②---|
口口口口 |③---|
口口口口 |④---|
69
口口口口 |①---|
口口口口 |②---|
①②③④ |③---|
口口口口 |④---|
70
口口口口 |①---|
④③②① |②---|
口口口口 |③---|
口口口口 |④---|
71
口口口口 |----|
口口口口 |----|
口口口口 |----|
口口口口 |----|
72
口口口口 |①---|
口口①口 |--②-|
口②③口 |----|
口口口口 |--③-|
73
口口口口 |----|
口①②口 |①---|
口③口口 |②---|
口口口口 |--③-|
74
口口口口 |----|
口②口口 |--①-|
口口①口 |----|
口口口口 |②---|
75
口口口口 |①---|
口口①口 |--②-|
口②③口 |----|
口口口口 |--③-|
76
口②②口 |----|
口①口口 |①---|
口口口口 |----|
口口口口 |--②-|


不確定度: 0

最終更新:2013年06月30日 20:16