つぼみ
達見 恵 featured by 佐野宏晃

ADVANCED

Level: 7
BPM: 184
Notes: 348

1
口口口口 |----|
口口口口 |----|
口口口口 |----|
口口口口 |----|
2
①口②口 |----|
③口④口 |--①-|
⑤口口口 |②-③-|
口口口口 |④-⑤-|
3
口口口口 |①---|
口口口口 |②-③-|
口②①口 |----|
口④③口 |--④-|
4
口口口④ |①---|
③口口② |②---|
口口①口 |③---|
口口口口 |④---|
5
①口③口 |①---|
口②口口 |②-③-|
口口口口 |----|
口口口口 |----|
6
口口口口 |----|
口口口口 |----|
口口口口 |----|
口①口口 |--①-|
7
口口口口 |①---|
口④③口 |②-③-|
口②①口 |----|
口口口口 |--④-|
8
口口①口 |①---|
②口口口 |②---|
④口口③ |③---|
口口口口 |④---|
9
口口③口 |①---|
口②口① |----|
口口口口 |----|
口口口口 |②-③-|
10
口口口口 |----|
口口②口 |①-②-|
口①④口 |----|
口③口口 |③-④-|
11
口口口口 |----|
口口口口 |----|
口口口口 |----|
口口口口 |----|
12
①①口口 |①---|
口③③口 |--②-|
口口②② |----|
口口口口 |--③-|
13
口口②② |----|
口口口口 |①---|
③③口口 |②---|
口①①口 |--③-|
14
口口口口 |----|
口②②口 |--①-|
口口口口 |----|
口①①口 |②---|
15
①①口口 |①---|
口③③口 |--②-|
口口②② |----|
口口口口 |--③-|
16
③口口③ |----|
口口口口 |①---|
口②②口 |--②-|
口①①口 |--③-|
17
口口口口 |----|
①口口口 |----|
口口口口 |----|
口口口口 |--①-|
18
口口口② |①---|
口①口③ |②-③-|
口⑤口口 |----|
口④口口 |④-⑤-|
19
④④口口 |----|
口口①① |①---|
②口③③ |②---|
②口口口 |③-④-|
20
口口口口 |----|
口口口口 |----|
口口口口 |----|
口口口口 |----|
21
口口口口 |----|
①②③口 |①-②-|
口口⑤④ |③---|
口口口口 |④-⑤-|
22
口②口口 |①---|
口④③口 |②-③-|
口①口口 |----|
口口口口 |--④-|
23
口口①口 |①---|
口口口口 |②---|
②②口③ |③---|
④④口③ |④---|
24
口口口口 |①---|
口②①① |----|
口口③口 |----|
口口口口 |②-③-|
25
口口口口 |----|
①口口口 |----|
口口口口 |----|
口口口口 |--①-|
26
口口口② |①---|
口①口③ |②-③-|
口⑤口口 |----|
口④口口 |④-⑤-|
27
④④口口 |----|
口口①① |①---|
②口③③ |②---|
②口口口 |③-④-|
28
口口口口 |----|
口口口口 |----|
口口口口 |----|
口①口口 |--①-|
29
口口口口 |①---|
④④口③ |②---|
②②①③ |③---|
口口口口 |④---|
30
口②①① |①---|
口口③口 |②-③-|
口口口口 |----|
口④口口 |--④-|
31
④④口口 |①---|
口口③③ |②---|
②②①口 |③---|
口口口口 |④---|
32
口口①① |①---|
口②口口 |--②-|
口口③口 |③---|
口④口口 |--④-|
33
口④口口 |①-②-|
口口③口 |③-④-|
口②口口 |----|
口口①口 |----|
34
口口口口 |①---|
口②③口 |②---|
口①④口 |③---|
口口口口 |④---|
35
口口口口 |----|
①③口② |①---|
口口④口 |②---|
口口口口 |③-④-|
36
口口口口 |①---|
口口②口 |--②-|
口③口口 |③---|
口①口口 |----|
37
口口口口 |----|
口口口口 |----|
口①口口 |----|
口口口口 |--①-|
38
口④口口 |①---|
口口①口 |②---|
口口②口 |③---|
口口③口 |④---|
39
口口口口 |----|
口①口口 |①-②-|
口③②口 |----|
口口④口 |③-④-|
40
③③口口 |①---|
口口②② |--②-|
①口口口 |----|
口口口口 |③---|
41
口口口口 |----|
口口口口 |----|
口③口口 |--①-|
口①②口 |②-③-|
42
口口③③ |①---|
口②①① |②-③-|
口口口口 |----|
口口口口 |----|
43
口口口口 |①-②-|
口②②口 |----|
口口口口 |----|
口①①口 |----|
44
①①①① |①---|
口②口口 |②-③-|
口④③口 |----|
口口口口 |--④-|
45
④④③③ |①---|
②②①口 |②---|
口口口口 |③---|
口口口口 |④---|
46
口口口口 |①---|
口③③口 |②-③-|
①口口① |----|
口②②口 |----|
47
口口口口 |----|
口口口口 |----|
口口口口 |----|
①口口① |①---|
48
口口②② |①---|
①①口口 |----|
口口口口 |②---|
口口口口 |----|
49
口口口口 |①---|
③②口口 |----|
③②①① |②---|
口口口口 |③---|
50
①①口口 |①---|
口口口口 |②-③-|
口口②口
口③口口

口⑤口口
口口④口
口口口口 |----|
口口口口 |④-⑤-|
51
口口口口 |----|
口口口口 |----|
口口口口 |----|
口①口口 |--①-|
52
口口⑤口 |①---|
口④③口 |②-③-|
口②①口 |----|
口口口口 |④-⑤-|
53
口口口口 |----|
③③口口 |①---|
口口②② |②---|
①①口口 |③---|
54
口口①① |①---|
③口口③ |--②-|
④②②④ |--③-|
⑤口口⑤ |④-⑤-|
55
口⑤口口 |----|
口③④口 |--①-|
口①②口 |②-③-|
口口口口 |④-⑤-|
56
口口①口 |①---|
②口口② |②-③-|
③口口③ |----|
④口口口 |--④-|
57
口口口口 |①---|
②口口③ |②---|
②④④③ |③---|
口口①① |④---|
58
③②②③ |①---|
口①①口 |②-③-|
口口口口 |----|
口口口口 |----|
59
口口口口 |----|
口口口口 |----|
口口口口 |----|
①口口① |①---|
60
②①①② |①---|
口口口口 |----|
口口口口 |②---|
口口口口 |----|
61
口口口口 |①---|
③③①① |②---|
④④②② |③---|
口口口口 |④---|
62
②口口② |①---|
③口口③ |②-③-|
口口口口 |----|
口①①口 |----|
63
口口口口 |----|
口口口口 |----|
口口口口 |----|
口①口口 |--①-|
64
口口口口 |①---|
口④③③ |②-③-|
口②①① |----|
口口口口 |--④-|
65
口口①① |①---|
④④口口 |②---|
②②③③ |③---|
口口口口 |④---|
66
口口①① |①---|
口口口口 |----|
口口口口 |----|
口口口口 |----|
67
口口口口 |----|
口口口口 |----|
口口口口 |----|
口①口口 |--①-|
68
口口口口 |①---|
口④③③ |②-③-|
口②①① |----|
口口口口 |--④-|
69
口口①① |①---|
④④口口 |②---|
②②③③ |③---|
口口口口 |④---|
70
口口①① |①---|
口口口口 |----|
口口口口
口口口口

口口③③
口口口口
口②口口 |----|
口口口口 |②-③-|
71
口口口口 |----|
①口③① |--①-|
口②口口 |----|
口口口口 |②-③-|
72
①①口口 |①---|
口③③口 |--②-|
口口②② |----|
口口口口 |--③-|
73
口口②② |----|
口口口口 |①---|
③③口口 |②---|
口①①口 |--③-|
74
口口口口 |----|
口②②口 |--①-|
口口口口 |----|
口①①口 |②---|
75
①①口口 |①---|
口③③口 |--②-|
口口②② |----|
口口口口 |--③-|
76
③口口③ |----|
口口口口 |①---|
口②②口 |--②-|
口①①口 |--③-|


不確定度: 0

最終更新:2013年06月30日 20:15