Flip Flap
kors k

BASIC

Level: 4
BPM: 175
Notes: 342

1
口口口口 |------|
口口口口 |------|
口口口口 |------|
口口口口 |------|
2
口口口口 |①-----|
口①②口 |②-----|
口③③口 |③-----|
口口口口 |------|
3
口口口口 |①-----|
口口口口 |②-----|
口口口口 |③-----|
①②③④ |④-----|
4
口口口口 |①-----|
①口口② |②-----|
③口口③ |③-----|
口口口口 |------|
5
①②③④ |①-----|
口口口口 |②-----|
口口口口 |③-----|
口口口口 |④-----|
6
口口口口 |①-----|
口①②口 |②-----|
口③③口 |③-----|
口口口口 |------|
7
口口口口 |①-----|
口口口口 |②-----|
口口口口 |③-----|
①②③④ |④-----|
8
口口口口 |①-----|
①口口② |②-----|
③口口③ |③-----|
口口口口 |------|
9
①②③④ |①-----|
口口口口 |②-----|
口口口口 |③-----|
口口口口 |④-----|
10
口口口口 |①-----|
口①②口 |②-----|
口③③口 |③-----|
口口口口 |------|
11
口口口口 |①-----|
口口口口 |②-----|
口口口口 |③-----|
①②③④ |④-----|
12
口口口口 |①-----|
①口口② |②-----|
③口口③ |③-----|
口口口口 |------|
13
①②③④ |①-----|
口口口口 |②-----|
口口口口 |③-----|
口口口口 |④-----|
14
口口口口 |①-----|
口①②口 |②-----|
口③③口 |③-----|
口口口口 |------|
15
口口口口 |①-----|
口口口口 |②-----|
口口口口 |③-----|
①②③④ |④-----|
16
口口口口 |①-----|
①口口② |②-----|
③口口③ |③-----|
口口口口 |------|
17
口①①口 |①-----|
口②②口 |②-----|
口③③口 |③-----|
口④④口 |④-----|
18
口口口口 |①-----|
口口口口 |------|
口口口口 |②-----|
①口口② |------|
19
①①口口 |①-----|
②②口口 |②-----|
③③口口 |③-----|
口口口口 |------|
20
口口口口 |①-----|
口口口口 |------|
口口口口 |②-----|
②口口① |------|
21
口口③③ |①-----|
口口②② |②-----|
口口①① |③-----|
口口口口 |------|
22
口口口口 |①-----|
口口口口 |------|
口口口口 |②-----|
①口口② |------|
23
①①口口 |①-----|
②②口口 |②-----|
③③口口 |③-----|
口口口口 |------|
24
口口口口 |①-----|
口口口口 |------|
口口口口 |②-----|
②口口① |------|
25
口口③③ |①-----|
口口②② |②-----|
口口①① |③-----|
口口口口 |------|
26
口口口口 |①-----|
口③③口 |②-----|
口②②口 |③-----|
口①①口 |------|
27
口口口口 |①-----|
③口口③ |②-----|
②口口② |③-----|
①口口① |------|
28
口④④口 |①-----|
口③③口 |②-----|
口②②口 |③-----|
口①①口 |④-----|
29
①口口① |①-----|
②口口② |②-----|
③口口③ |③-----|
口口口口 |------|
30
口口口口 |①-----|
口③③口 |②-----|
口②②口 |③-----|
口①①口 |------|
31
口口口口 |①-----|
③口口③ |②-----|
②口口② |③-----|
①口口① |------|
32
口④④口 |①-----|
口③③口 |②-----|
口②②口 |③-----|
口①①口 |④-----|
33
①口口① |①-----|
②口口② |②-----|
③口口③ |③-----|
④口口④ |④-----|
34
口口口口 |①-----|
口①②口 |------|
口口口口 |②-----|
口口口口 |------|
35
①口口口 |①-----|
②口口口 |②-----|
③口口口 |③-----|
④口口口 |④-----|
36
口口口口 |①-----|
口①②口 |------|
口口口口 |②-----|
口口口口 |------|
37
口口口① |①-----|
口口口② |②-----|
口口口③ |③-----|
口口口④ |④-----|
38
口口口口 |①-----|
口①②口 |------|
口口口口 |②-----|
口口口口 |------|
39
①口口口 |①-----|
②口口口 |②-----|
③口口口 |③-----|
④口口口 |④-----|
40
口口口口 |①-----|
口①②口 |------|
口口口口 |②-----|
口口口口 |------|
41
口口口① |①-----|
口口口② |②-----|
口口口③ |③-----|
口口口④ |④-----|
42
口口口口 |①-----|
口口口口 |②-----|
口②②口 |------|
口①①口 |------|
43
①口口口 |①-----|
②口口口 |②-----|
③口口口 |③-----|
④口口口 |④-----|
44
口口口口 |①-----|
口①②口 |②-----|
口口口口 |------|
口口口口 |------|
45
口口口① |①-----|
口口口② |②-----|
口口口③ |③-----|
口口口④ |④-----|
46
口口口口 |①-----|
口①②口 |②-----|
口口口口 |------|
口口口口 |------|
47
①口口口 |①-----|
②口口口 |②-----|
③口口口 |③-----|
④口口口 |④-----|
48
口口口口 |①-----|
口①②口 |②-----|
口口口口 |------|
口口口口 |------|
49
口口口① |①-----|
口口口② |②-----|
口口口③ |③-----|
口口口④ |④-----|
50
口口口口 |①-----|
口①②口 |------|
口口口口 |②-----|
口口口口 |------|
51
①口口口 |①-----|
口口口口 |------|
②口口口 |②-----|
口口口口 |------|
52
口口口口 |①-----|
口口口口 |------|
口①②口 |②-----|
口口口口 |------|
53
口口口② |①-----|
口口口口 |------|
口口口① |②-----|
口口口口 |------|
54
口口口口 |①-----|
口①②口 |------|
口口口口 |②-----|
口口口口 |------|
55
①口口口 |①-----|
口口口口 |------|
②口口口 |②-----|
口口口口 |------|
56
口口口口 |①-----|
口口口口 |------|
口①②口 |②-----|
口口口口 |------|
57
口口口② |①-----|
口口口口 |------|
口口口① |②-----|
口口口口 |------|
58
口口口口 |①-----|
口口口口 |------|
口口口口 |②-----|
①口口② |------|
59
①①口口 |①-----|
②②口口 |②-----|
③③口口 |③-----|
口口口口 |------|
60
口口口口 |①-----|
口口口口 |------|
口口口口 |②-----|
②口口① |------|
61
口口③③ |①-----|
口口②② |②-----|
口口①① |③-----|
口口口口 |------|
62
口口口口 |①-----|
②②口口 |------|
口口口口 |②-----|
①口口口 |------|
63
口口口口 |①-----|
口口②② |------|
口口口口 |②-----|
口口口① |------|
64
①口口① |①-----|
②口口② |------|
口口口口 |②-----|
口口口口 |------|
65
口④④口 |①-----|
口③③口 |②-----|
口②②口 |③-----|
口①①口 |④-----|
66
口口口口 |①-----|
口口口口 |------|
口口口口 |②-----|
①口口② |------|
67
①①口口 |①-----|
②②口口 |②-----|
③③口口 |③-----|
口口口口 |------|
68
口口口口 |①-----|
口口口口 |------|
口口口口 |②-----|
②口口① |------|
69
口口③③ |①-----|
口口②② |②-----|
口口①① |③-----|
口口口口 |------|
70
口口口口 |①-----|
口口口口 |------|
口口口口 |②-----|
①口口② |------|
71
①①口口 |①-----|
②②口口 |②-----|
③③口口 |③-----|
口口口口 |------|
72
口口口口 |①-----|
口口口口 |------|
口口口口 |②-----|
②口口① |------|
73
口口③③ |①-----|
口口②② |②-----|
口口①① |③-----|
口口口口 |------|
74
口口口口 |①-----|
口③③口 |②-----|
口②②口 |③-----|
口①①口 |------|
75
口口口口 |①-----|
③口口③ |②-----|
②口口② |③-----|
①口口① |------|
76
口④④口 |①-----|
口③③口 |②-----|
口②②口 |③-----|
口①①口 |④-----|
77
①口口① |①-----|
②口口② |②-----|
③口口③ |③-----|
口口口口 |------|
78
口口口口 |①-----|
口③③口 |②-----|
口②②口 |③-----|
口①①口 |------|
79
口口口口 |①-----|
③口口③ |②-----|
②口口② |③-----|
①口口① |------|
80
口④④口 |①-----|
口③③口 |②-----|
口②②口 |③-----|
口①①口 |④-----|
81
①口口① |①-----|
②口口② |②-----|
③口口③ |③-----|
口口口口 |------|
82
口口口口 |①-----|
口①①口 |------|
口①①口 |------|
口口口口 |------|


不確定度: 0

最終更新:2013年06月30日 20:14