Flip Flap
kors k

ADVANCED

Level: 7
BPM: 175
Notes: 529

1
口口口口 |------|
口口口口 |------|
口口口口 |------|
口口口口 |------|
2
口口口口 |①-----|
①口口② |②-----|
口口口口 |③---④-|
口③④口 |------|
3
②口口口 |①-----|
口④③口 |②---③-|
①口口口 |④-----|
口口口⑤ |⑤-----|
4
口口口口 |①-----|
①口口② |②-----|
口③④口 |③---④-|
口口口口 |------|
5
口⑤④口 |①---②-|
⑥③②口 |③---④-|
口口⑦口 |⑤-----|
①口口口 |⑥---⑦-|
6
口口口② |①-----|
口③④口 |②-----|
口①口口 |③---④-|
口口口口 |------|
7
②口口口 |①-----|
口口口口 |②---③-|
①④③口 |④-----|
口口口⑤ |⑤-----|
8
口③④口 |①-----|
①口口② |②-----|
口口口口 |③---④-|
口口口口 |------|
9
口口口口 |①---②-|
⑥③②口 |③---④-|
口⑤④口 |⑤-----|
①口⑦口 |⑥---⑦-|
10
口口口口 |①-----|
口③④② |②-----|
口口口口 |③---④-|
口①口口 |------|
11
②口口口 |①-----|
口口口口 |②---③-|
①④③口 |④-----|
口口口⑤ |⑤-----|
12
口口口口 |①-----|
①口口② |②-----|
口③④口 |③---④-|
口口口口 |------|
13
①口⑦口 |①---②-|
口③②口 |③---④-|
⑥口口口 |⑤-----|
口⑤④口 |⑥---⑦-|
14
口①口口 |①-----|
口③④② |②-----|
口口口口 |③---④-|
口口口口 |------|
15
口口口口 |①-----|
②口口口 |②---③-|
口④③口 |④-----|
①口口⑤ |⑤-----|
16
①口口② |①-----|
口③④口 |②-----|
口口口口 |③---④-|
口口口口 |------|
17
口①①口 |①-----|
口口口口 |②-----|
④③②④ |③-----|
②⑤⑤③ |④---⑤-|
18
口①②口 |①-----|
①③④② |②-----|
口⑤⑥口 |③-④-⑤-|
⑦口口口 |⑥---⑦-|
19
口口口口 |①-----|
②⑤口② |②-----|
③口口③ |③-----|
口④④① |④---⑤-|
20
⑧⑥⑦口 |①-----|
口口①③ |②---③-|
口④⑤口 |④-⑤-⑥-|
②口口② |⑦---⑧-|
21
口口口口 |----①-|
口①②口 |②---③-|
⑤口口⑤ |④-----|
口④③口 |⑤-----|
22
口①②口 |①-----|
①③④② |②-----|
口⑤⑥口 |③-④-⑤-|
⑦口口口 |⑥---⑦-|
23
口口口口 |①-----|
②⑤口② |②-----|
③口口③ |③-----|
口④④① |④---⑤-|
24
⑧⑥⑦口 |①-----|
口口①③ |②---③-|
口④⑤口 |④-⑤-⑥-|
②口口② |⑦---⑧-|
25
口⑤⑤① |①-----|
口②②口 |②---③-|
口口口口 |④-----|
口③④口 |⑤-----|
26
口口口⑤ |①-----|
⑥④口⑥ |②-③-④-|
口口③口 |⑤-----|
①②口① |⑥-----|
27
⑤口口口 |①-----|
口口④口 |②-③-④-|
①③口① |⑤-----|
⑥口②⑥ |⑥-----|
28
口口③口 |①-----|
②口口口 |②---③-|
①口口①
口口口口

口口口⑦
口⑥口口
口口⑤⑧ |④-⑤-⑥-|
口④口口 |⑦---⑧-|
29
口⑥⑥口 |①---②-|
⑤口口④ |③---④-|
①口口口 |⑤-----|
②口口③ |⑥-----|
30
⑤⑥⑥口 |①-----|
口口④口 |②-③-④-|
①③口① |⑤-----|
口口②口 |⑥-----|
31
口口口⑤ |①-----|
口④口口 |②-③-④-|
⑥口③⑥ |⑤-----|
①②口① |⑥-----|
32
②①①口 |①-----|
口口口③ |②---③-|
口口口口
口口口口

口口⑧⑦
口⑥口口
口口⑤口 |④-⑤-⑥-|
口④口口 |⑦---⑧-|
33
口①口⑤ |①-----|
②口口② |②---③-|
口③④口 |④-----|
口口口口 |⑤-----|
34
①口口口 |①-----|
②口③口 |②-----|
口④口口 |----③-|
口口口口 |----④-|
35
口③③口 |①-----|
口口口② |②-----|
口口①口 |③-----|
口④④口 |④-----|
36
口口口① |①-----|
口③口② |②-----|
口口④口 |----③-|
口口口口 |----④-|
37
口③③口 |①-----|
②口口口 |②-----|
口①口口 |③-----|
口④④口 |④-----|
38
①口口口 |①-----|
②口③口 |②-----|
口④口口 |----③-|
口口口口 |----④-|
39
口③③口 |①-----|
口口口② |②-----|
口口①口 |③-----|
口④④口 |④-----|
40
口口口① |①-----|
口③口② |②-----|
口口④口 |----③-|
口口口口 |----④-|
41
口口口口 |①-----|
②口口口 |②-----|
口①口口
口口口口

口③③口
口口口口
口⑤口口 |③-----|
口④④口 |④---⑤-|
42
②口口② |①-----|
②口③② |②-----|
口④①口 |----③-|
口口口口 |----④-|
43
口③③口 |①-----|
口口口② |②-----|
口口①口 |③-----|
口④④口 |④-----|
44
口口口① |①-----|
口③口② |②-----|
口口④口 |----③-|
口口口口 |----④-|
45
口③③口 |①-----|
②口口口 |②-----|
口①口口 |③-----|
口④④口 |④-----|
46
①口口口 |①-----|
②口③口 |②-----|
口④口口 |----③-|
口口口口 |----④-|
47
口③③口 |①-----|
口口口② |②-----|
口口①口 |③-----|
口④④口 |④-----|
48
口口口① |①-----|
口③口② |②-----|
口口④口 |----③-|
口口口口 |----④-|
49
口③③口 |①-----|
②口口口 |②-----|
口①口口 |③-----|
口④④口 |④-----|
50
①口口② |①-----|
口③④口 |②-----|
口口口口 |③---④-|
口口口口 |------|
51
口口口口 |①-----|
②口口口 |②---③-|
口④③口 |④-----|
①口口⑤ |⑤-----|
52
①口口② |①-----|
口③④口 |②-----|
口口口口 |③---④-|
口口口口 |------|
53
口口⑦口 |①---②-|
⑥口口口 |③---④-|
口③②口 |⑤-----|
①⑤④口 |⑥---⑦-|
54
口①口口 |①-----|
口口口② |②-----|
口③④口 |③---④-|
口口口口 |------|
55
②口口口 |①-----|
口④③口 |②---③-|
口口口⑤ |④-----|
①口口口 |⑤-----|
56
口③②口 |①---②-|
口⑤④口 |③---④-|
①⑦⑥口 |⑤---⑥-|
口口⑧口 |⑦---⑧-|
57
口③②口 |①---②-|
口⑤④口 |③---④-|
口⑦⑥口 |⑤---⑥-|
口①口口 |⑦-----|
58
口口口口 |①-----|
①③④② |②-----|
口⑤⑥口 |③-④-⑤-|
⑦口口口 |⑥---⑦-|
59
口④②口 |①-----|
口口口口 |②-----|
口⑤口口 |③-----|
口③口① |④---⑤-|
60
口口口② |①-----|
⑧⑥⑦③ |②---③-|
口口①口 |④-⑤-⑥-|
口④⑤口 |⑦---⑧-|
61
口①②口 |----①-|
口口口口 |②---③-|
⑤③④⑤ |④-----|
口口口口 |⑤-----|
62
口口③口 |①-----|
①④口② |②-----|
口口⑤口 |③-④-⑤-|
口⑥口口 |⑥-----|
63
口③口口 |①-----|
①口④② |②-----|
口⑤口口 |③-④-⑤-|
⑦口⑥口 |⑥---⑦-|
64
口⑥①口 |①-②-③-|
⑩②⑦口 |④---⑤-|
口⑧③口 |⑥-⑦-⑧-|
口④⑨⑤ |⑨---⑩-|
65
②口①① |①-----|
口②口口 |②-----|
④③③④ |③-----|
口⑤⑤口 |④---⑤-|
66
口①②口 |①-----|
①③④② |②-----|
口⑤⑥口 |③-④-⑤-|
⑦口口口 |⑥---⑦-|
67
口口口口 |①-----|
②⑤口② |②-----|
③口口③ |③-----|
口④④① |④---⑤-|
68
⑧⑥⑦口 |①-----|
口口①③ |②---③-|
口④⑤口 |④-⑤-⑥-|
②口口② |⑦---⑧-|
69
口口口口 |----①-|
口①②口 |②---③-|
⑤口口⑤ |④-----|
口④③口 |⑤-----|
70
口①②口 |①-----|
①③④② |②-----|
口⑤⑥口 |③-④-⑤-|
⑦口口口 |⑥---⑦-|
71
口口口口 |①-----|
②⑤口② |②-----|
③口口③ |③-----|
口④④① |④---⑤-|
72
⑧⑥⑦口 |①-----|
口口①③ |②---③-|
口④⑤口 |④-⑤-⑥-|
②口口② |⑦---⑧-|
73
口⑤⑤① |①-----|
口②②口 |②---③-|
口口口口 |④-----|
口③④口 |⑤-----|
74
口口口⑤ |①-----|
⑥④口⑥ |②-③-④-|
口口③口 |⑤-----|
①②口① |⑥-----|
75
⑤口口口 |①-----|
口口④口 |②-③-④-|
①③口① |⑤-----|
⑥口②⑥ |⑥-----|
76
口口③口 |①-----|
②口口口 |②---③-|
①口口①
口口口口

口口口⑦
口⑥口口
口口⑤⑧ |④-⑤-⑥-|
口④口口 |⑦---⑧-|
77
口⑥⑥口 |①---②-|
⑤口口④ |③---④-|
①口口口 |⑤-----|
②口口③ |⑥-----|
78
⑤⑥⑥口 |①-----|
口口④口 |②-③-④-|
①③口① |⑤-----|
口口②口 |⑥-----|
79
口口口⑤ |①-----|
口④口口 |②-③-④-|
⑥口③⑥ |⑤-----|
①②口① |⑥-----|
80
②①①口 |①-----|
口口口③ |②---③-|
口口口口
口口口口

口口⑧⑦
口⑥口口
口口⑤口 |④-⑤-⑥-|
口④口口 |⑦---⑧-|
81
口①口口 |①-----|
②口口② |②---③-|
口③④口 |④-----|
口口口口 |------|
82
口①①口 |①-----|
口①①口 |------|
口口口口 |------|
口口口口 |------|


不確定度: 0

最終更新:2013年06月30日 20:14