I/O
Ryu☆

BASIC

Level: 5
BPM: 151
Notes: 310

1
口口口口 |----|
口口口口 |----|
口口口口 |----|
口口口口 |----|
2
口口口口 |①---|
口口①口 |----|
口口②口 |②---|
口口口口 |----|
3
口口口口 |①---|
口②口口 |----|
口①口口 |②---|
口口口口 |----|
4
④口口口 |①---|
③口口口 |②---|
②口口口 |③---|
①口口口 |④---|
5
口口口口 |①---|
口③②① |②---|
口口口口 |③---|
口口口口 |----|
6
④口口口 |①---|
③口口口 |②---|
②口口口 |③---|
①口口口 |④---|
7
口口口口 |①---|
口口口口 |②---|
口③②① |③---|
口口口口 |----|
8
④口口口 |①---|
③口口口 |②---|
②口口口 |③---|
①口口口 |④---|
9
口③②① |①---|
口口口口 |②---|
口口口口 |③---|
口口口口 |----|
10
④口口口 |①---|
③口口口 |②---|
②口口口 |③---|
①口口口 |④---|
11
口口口口 |①---|
口口口口 |②---|
口口口口 |③---|
口③②① |----|
12
口口口口 |①---|
口口口口 |----|
①口口口 |----|
①口口口 |----|
13
①口口口 |①---|
①口口口 |----|
口口口口 |----|
口口口口 |----|
14
口口口口 |①---|
口口口口 |----|
口口①① |----|
口口口口 |----|
15
口口口口 |①---|
口口①① |----|
口口口口 |----|
口口口口 |----|
16
口口口口 |①---|
口口口口 |②---|
①口口口 |③---|
①②③④ |④---|
17
①②③④ |①---|
①口口口 |②---|
口口口口 |③---|
口口口口 |④---|
18
口口口口 |①---|
④口口口 |②---|
③口①① |③---|
②口口口 |④---|
19
口口口口 |①---|
口④①① |②---|
口③口口 |③---|
口②口口 |④---|
20
口①①口 |①---|
口口口口 |----|
口口口口 |----|
口口口口 |----|
21
口口口口 |----|
口口口口 |----|
口口口口 |----|
口口口口 |----|
22
④④④口 |①---|
口③口口 |②---|
口②口口 |③---|
①①①口 |④---|
23
口口口口 |①---|
口口③口 |②---|
口④口② |③---|
口口①口 |④---|
24
口④④④ |①---|
口口③口 |②---|
口口②口 |③---|
口①①① |④---|
25
口口口口 |①---|
口③口口 |②---|
②口④口 |③---|
口①口口 |④---|
26
④④④口 |①---|
口③口口 |②---|
口②口口 |③---|
①①①口 |④---|
27
口口口口 |①---|
口口③口 |②---|
口④口② |③---|
口口①口 |④---|
28
口④④④ |①---|
口口③口 |②---|
口口②口 |③---|
口①①① |④---|
29
口口口口 |①---|
口③口口 |②---|
②口④口 |③---|
口①口口 |④---|
30
口口口口 |①---|
口口口口 |②---|
①口口口 |③---|
①②③④ |④---|
31
①②③口 |①---|
①口口口 |②---|
口口口口 |③---|
口口口口 |----|
32
口口口口 |①---|
④口口口 |②---|
③口①① |③---|
②口口口 |④---|
33
口口口口 |①---|
口口①① |②---|
口③口口 |③---|
口②口口 |----|
34
口口口口 |①---|
口口口口 |②---|
①口口口 |③---|
①②③④ |④---|
35
①②③口 |①---|
①口口口 |②---|
口口口口 |③---|
口口口口 |----|
36
口口口口 |①---|
④口口口 |②---|
③口①① |③---|
②口口口 |④---|
37
口④④口 |①---|
口③①① |②---|
口②口口 |③---|
口口口口 |④---|
38
口口口口 |①---|
口口口口 |----|
②①①② |②---|
口口口口 |----|
39
口口口口 |①---|
口①①口 |②---|
口②②口 |③---|
口③③口 |----|
40
口口口口 |①---|
口②②口 |----|
①口口① |②---|
口口口口 |----|
41
③口口③ |①---|
②口口② |②---|
①口口① |③---|
口口口口 |----|
42
口口口口 |①---|
④③③④ |②---|
②①①② |③---|
口口口口 |④---|
43
口④④口 |①---|
口③③口 |②---|
口②②口 |③---|
口①①口 |④---|
44
①口口① |①---|
②口口② |②---|
③口口③ |③---|
④口口④ |④---|
45
口口口口 |①---|
口①①口 |②---|
口②②口 |③---|
口③③口 |----|
46
口口口口 |----|
口口口口 |----|
口口口口 |----|
口口口口 |----|
47
口口口口 |----|
口口口口 |----|
口口口口 |----|
口口口口 |----|
48
口口口口 |①---|
口口口口 |②---|
②口④④ |③---|
①口③③ |④---|
49
②口④④ |①---|
①口③③ |②---|
口口口口 |③---|
口口口口 |④---|
50
口口口口 |①---|
口口口口 |②---|
②口④④ |③---|
①口③③ |④---|
51
口①①口 |①---|
口②②口 |②---|
口③③口 |③---|
口口口口 |----|
52
口口口口 |①---|
口口口口 |②---|
②口④④ |③---|
①口③③ |④---|
53
②口④④ |①---|
①口③③ |②---|
口口口口 |③---|
口口口口 |④---|
54
口口口口 |①---|
口口口口 |②---|
②口④④ |③---|
①口③③ |④---|
55
①口口① |①---|
②口口② |②---|
③口口③ |③---|
口口口口 |----|
56
④口口口 |①---|
③口口口 |②---|
②口③② |③---|
①口④① |④---|
57
④口③② |①---|
③口④① |②---|
②口口口 |③---|
①口口口 |④---|
58
口④口口 |①---|
口③口口 |②---|
口②③② |③---|
口①④① |④---|
59
口④③② |①---|
口③④① |②---|
口②口口 |③---|
口①口口 |④---|
60
④口口口 |①---|
③口口口 |②---|
②口③② |③---|
①口④① |④---|
61
④口③② |①---|
③口④① |②---|
②口口口 |③---|
①口口口 |④---|
62
口④④口 |①---|
口③③口 |②---|
口②②口 |③---|
口①①口 |④---|
63
①口口① |①---|
②口口② |----|
②口口② |②---|
口口口口 |----|
64
口口口口 |①---|
口口①口 |----|
口口①口 |----|
口口口口 |----|


不確定度: 0

最終更新:2013年06月30日 20:12