I/O
Ryu☆

ADVANCED

Level: 7
BPM: 151
Notes: 469

1
口口口口 |----|
口口口口 |----|
口口口口 |----|
口口口口 |----|
2
口口口口 |①---|
口④①口 |②---|
口③②口 |③---|
口口口口 |④---|
3
④口口④ |①---|
③口口③ |②---|
②口口② |③---|
口①①口 |④---|
4
口口口口 |①-②-|
口口口口 |③---|
⑤口口⑥ |④---|
②④③① |⑤-⑥-|
5
口口口口 |①---|
口口②口 |②---|
口①口口
口口口口

口口③口
口口口口
口④④口 |③---|
口口口口 |④---|
6
口口口口 |①-②-|
口口口口 |③---|
⑥口口⑤ |④---|
①③④② |⑤-⑥-|
7
口③口口 |①---|
口②④口 |②---|
口⑤①口 |③--④|
口口口口 |--⑤-|
8
口口口口 |①-②-|
口口口口 |③---|
⑤口口⑥ |④---|
②④③① |⑤-⑥-|
9
口口口口 |①---|
口口②口 |②---|
口①口口
口口口口

口口③口
口口口口
口④④口 |③---|
口口口口 |④---|
10
口口口口 |①-②-|
口口口口 |③--④|
⑤⑦④⑥ |--⑤-|
①③口② |⑥-⑦-|
11
口口口口 |①-②-|
②④③① |③-④-|
口口口口
口口口口

⑤⑤口口
口口口⑥
口口口⑥ |⑤---|
口口口口 |⑥---|
12
口口②② |①-②-|
口口③⑤ |-③--|
口口④口 |④--⑤|
①①⑥⑥ |--⑥-|
13
口口②② |①-②-|
口口③⑤ |-③--|
①①④口 |④--⑤|
口口⑥⑥ |--⑥-|
14
口口②② |①-②-|
①①③⑤ |-③--|
口口④口 |④--⑤|
口口⑥⑥ |--⑥-|
15
①①②② |①-②-|
口口③⑤ |-③--|
口⑥④口 |④-⑤-|
口口⑦⑦ |⑥-⑦-|
16
口口②② |①-②-|
口口③⑤ |-③--|
①口口④ |④--⑤|
①口⑥⑥ |--⑥-|
17
口口②② |①-②-|
口口③⑤ |-③--|
口①口④ |④--⑤|
口①⑥⑥ |--⑥-|
18
①口②② |①-②-|
①口③⑤ |-③--|
口口④口 |④--⑤|
口口⑥⑥ |--⑥-|
19
口①②② |①-②-|
口①③口 |-③--|
口④⑤口 |④--⑤|
口口⑥⑥ |--⑥-|
20
口口口口 |①---|
口口口口 |----|
①口口口 |----|
①口口口 |----|
21
口口口口 |----|
口口口口 |----|
口口口口 |----|
口口口口 |----|
22
口口口口 |①---|
口口口③ |②---|
⑤⑤口④ |③-④-|
②②①① |⑤---|
23
⑤⑤口口 |①---|
②②口④ |②---|
口口口③ |③-④-|
口口①① |⑤---|
24
口口口口 |①---|
口口口③ |②---|
⑤⑤口④ |③-④-|
②②①① |⑤---|
25
⑤⑤口口 |①---|
②②⑥④ |②---|
口口⑥③ |③-④-|
口口①① |⑤-⑥-|
26
口口口口 |①---|
③口口口 |②---|
④口⑤⑤ |③-④-|
①①②② |⑤---|
27
口口⑤⑤ |①---|
④口②② |②---|
③口口口 |③-④-|
①①口口 |⑤---|
28
口口口口 |①---|
③⑥口口 |②---|
④口⑤⑤ |③-④-|
①①②② |⑤-⑥-|
29
⑥口口⑥ |①-②-|
③⑤⑤② |-③--|
口④④口 |④--⑤|
③①①② |--⑥-|
30
口口口口 |①-②-|
口口口口 |③---|
⑤口口⑥ |④---|
②④③① |⑤-⑥-|
31
口口口口 |①---|
口口②口 |②---|
口①口口
口口口口

口口③口
口口口口
口④④口 |③---|
口口口口 |④---|
32
口口口口 |①-②-|
口口口口 |③---|
⑥口口⑤ |④---|
①③④② |⑤-⑥-|
33
口③口口 |①---|
口②④口 |②---|
口⑤①口 |③--④|
口口口口 |--⑤-|
34
口口口口 |①-②-|
口口口口 |③---|
⑤口口⑥ |④---|
②④③① |⑤-⑥-|
35
口口口口 |①---|
口口②口 |②---|
口①口口
口口口口

口口③口
口口口口
口④④口 |③---|
口口口口 |④---|
36
口口口口 |①-②-|
②④③① |③-④-|
⑥⑧⑦⑤ |⑤-⑥-|
口口口口 |⑦-⑧-|
37
口口口口 |①-②-|
口口⑦⑦ |③-④-|
口⑥⑤口 |⑤-⑥-|
②④③① |⑦---|
38
口①①口 |①---|
口②⑦口 |②-③-|
③口口⑥ |④-⑤-|
口④⑤口 |⑥-⑦-|
39
口口口② |①---|
口口口口 |②---|
②①①口
口口口口

③口口口
口口口口
口⑤④③ |③---|
口口口口 |④-⑤-|
40
口①①口 |①---|
口口②口 |②-③-|
⑤口口③ |④---|
口口④口 |⑤---|
41
③③③③ |①---|
②②②② |②---|
口①①口 |③---|
口口口口 |----|
42
口口口口 |①---|
口②⑦口 |②-③-|
③①①⑥ |④-⑤-|
口④⑤口 |⑥-⑦-|
43
口口口口 |①---|
②口口② |②---|
口①①口
口口口口

③③③③
口口口口
口⑤④口 |③---|
口口口口 |④-⑤-|
44
口口⑥口 |①-②-|
⑤③②⑦ |③-④-|
④口口① |⑤---|
口口口口 |⑥-⑦-|
45
口口口口 |①-②-|
口②①口 |③-④-|
口④③口 |⑤---|
口口⑤⑤ |----|
46
口口口口 |----|
口口口口 |----|
口口口口 |----|
口口口口 |----|
47
口口口口 |----|
口口口口 |----|
口口口口 |----|
口口口口 |----|
48
口⑦口⑥ |①-②-|
⑤⑨口⑧ |③-④-|
④口口口 |⑤-⑥⑦|
③口②① |-⑧⑨-|
49
⑥口⑦口 |①-②-|
⑧口⑨⑤ |③-④-|
口口口④ |⑤-⑥⑦|
①②口③ |-⑧⑨-|
50
口⑦口⑥ |①-②-|
⑤⑨口⑧ |③-④-|
④口口口 |⑤-⑥⑦|
③口②① |-⑧⑨-|
51
口口口口 |①-②-|
口口口口 |③-④-|
③④②① |⑤---|
⑥⑥⑤⑤ |⑥---|
52
⑤⑦口⑥ |①-②-|
④⑨口⑧ |③-④-|
③口②① |⑤-⑥⑦|
口口口口 |-⑧⑨-|
53
⑥口⑦口 |①-②-|
⑧口⑨⑤ |③-④-|
口口口④ |⑤-⑥⑦|
①②口③ |-⑧⑨-|
54
口口口口 |①-②-|
⑤⑦口⑥ |③-④-|
口②③口 |⑤--⑥|
①口口④ |--⑦-|
55
⑦口口⑦ |①-②③|
口口①口 |-④⑤-|
⑥②③口 |⑥---|
⑥④⑤口 |⑦---|
56
口口口口 |①-②-|
口口口口 |③-④-|
口口④①
③口②①

⑤⑤口口
口⑦口⑥
口⑨口⑧ |⑤-⑥⑦|
口口口口 |-⑧⑨-|
57
口口口口 |①-②-|
口口口口 |③-④-|
①口口口
①②③④

口口⑤⑤
⑥口⑦口
⑧口⑨口 |⑤-⑥⑦|
口口口口 |-⑧⑨-|
58
口口⑤⑤ |①-②-|
⑥口⑦口 |③-④-|
⑧口⑨④ |⑤-⑥⑦|
①②口③ |-⑧⑨-|
59
①②④③ |①-②-|
口口⑥⑥ |③-④-|
⑤⑤口口 |⑤---|
口口口口 |⑥---|
60
⑤⑤口口 |①-②-|
④⑦⑥口 |③-④-|
口⑨⑧① |⑤-⑥⑦|
③口②① |-⑧⑨-|
61
口口⑤⑤ |①-②-|
口⑥⑦④ |③-④-|
①⑧⑨口 |⑤-⑥⑦|
①②口③ |-⑧⑨-|
62
⑤⑤⑥⑥ |①-②-|
④口口口 |③-④-|
③口口① |⑤--⑥|
⑦⑦②① |--⑦-|
63
口口口口 |①-②③|
口③②口 |-④⑤-|
①⑤④口 |⑥---|
口口⑥⑥ |----|
64
口口口口 |①---|
口口口口 |----|
口口口口 |----|
①①口口 |----|


不確定度: 0

最終更新:2013年06月30日 20:12