RED ZONE
Tatsh&NAOKI

BASIC

Level: 4
BPM: 165
Notes: 309

1
口口口口 |----|
口口口口 |----|
口口口口 |----|
口口口口 |----|
2
口口口口 |----|
口口口口 |----|
口口口口 |----|
口口口口 |----|
3
口口口口 |----|
口口口口 |----|
口口口口 |----|
口口口口 |----|
4
口口口口 |----|
口口口口 |----|
口口口口 |----|
口口口口 |----|
5
口口口口 |①---|
①口口② |----|
①口口② |②---|
口口口口 |----|
6
口④口口 |①---|
口③口口 |②---|
口②口口 |③---|
口①口口 |④---|
7
口口④口 |①---|
口口③口 |②---|
口口②口 |③---|
口口①口 |④---|
8
④口口口 |①---|
③口口口 |②---|
②口口口 |③---|
①口口口 |④---|
9
口口口口 |①---|
口口口③ |②---|
口口口② |③---|
口口口① |----|
10
口④口口 |①---|
口③口口 |②---|
口②口口 |③---|
口①口口 |④---|
11
口口④口 |①---|
口口③口 |②---|
口口②口 |③---|
口口①口 |④---|
12
④口口口 |①---|
③口口口 |②---|
②口口口 |③---|
①口口口 |④---|
13
口①①口 |①---|
口②②口 |②---|
口③③口 |③---|
口④④口 |④---|
14
口口口口 |①---|
口口口口 |②---|
③口口④ |③---|
①口口② |④---|
15
③口口④ |①---|
①口口② |②---|
口口口口 |③---|
口口口口 |④---|
16
口④④口 |①---|
口③③口 |②---|
口②②口 |③---|
口①①口 |④---|
17
④口口④ |①---|
③口口③ |②---|
②口口② |③---|
①口口① |④---|
18
口①②口 |①---|
口③④口 |②---|
口口口口 |③---|
口口口口 |④---|
19
口口口口 |①---|
口口口口 |②---|
口①②口 |③---|
口③④口 |④---|
20
④口口④ |①---|
③口口③ |②---|
②口口② |③---|
①口口① |④---|
21
口口口口 |①---|
口口口口 |----|
口①①口 |----|
口口口口 |----|
22
①②口口 |①---|
口③③口 |②---|
口口口口 |③---|
口口口口 |----|
23
口口口口 |①---|
口口口口 |②---|
口口②① |③---|
口③③口 |----|
24
口口口口 |①---|
口③③口 |②---|
①②口口 |③---|
口口口口 |----|
25
①口口① |①---|
②口口② |②---|
③口口③ |③---|
④口口④ |④---|
26
①②口口 |①---|
口③③口 |②---|
口口口口 |③---|
口口口口 |----|
27
口口口口 |①---|
口口口口 |②---|
口口②① |③---|
口③③口 |----|
28
口口口口 |①---|
口③③口 |②---|
①②口口 |③---|
口口口口 |----|
29
①口口① |①---|
②口口② |②---|
③口口③ |③---|
④口口④ |④---|
30
④口口口 |①---|
口③口口 |②---|
②口口口 |③---|
口①口口 |④---|
31
口口口① |①---|
口口口② |②---|
口口口③ |③---|
口口口④ |④---|
32
口④口口 |①---|
③口口口 |②---|
口②口口 |③---|
①口口口 |④---|
33
口口④口 |①---|
口口③口 |②---|
口口②口 |③---|
口口①口 |④---|
34
④口口口 |①---|
口③口口 |②---|
②口口口 |③---|
口①口口 |④---|
35
口口④口 |①---|
口口口③ |②---|
口口②口 |③---|
口口口① |④---|
36
①口口① |①---|
口口口口 |----|
口口口口 |----|
口口口口 |----|
37
口口口口 |----|
①口口① |----|
②口口② |①--②|
③口口③ |--③-|
38
口①口口 |①---|
口口②口 |----|
口口口口 |②---|
口口口口 |----|
39
口口口口 |①---|
口口口口 |----|
口①口口 |②---|
口口②口 |----|
40
口口①口 |①---|
口②口口 |----|
口口口口 |②---|
口口口口 |----|
41
口口口口 |①---|
口口口口 |----|
口口①口 |②---|
口②口口 |----|
42
口口口口 |①---|
口口口口 |②---|
③口口④ |③---|
①口口② |④---|
43
③口口④ |①---|
①口口② |②---|
口口口口 |③---|
口口口口 |④---|
44
口口口口 |①---|
口口口口 |②---|
口③④口 |③---|
口①②口 |④---|
45
口③④口 |①---|
口①②口 |②---|
口口口口 |③---|
口口口口 |④---|
46
①②口口 |①---|
口③③口 |②---|
口口口口 |③---|
口口口口 |----|
47
口口口口 |①---|
口口口口 |②---|
口口②① |③---|
口③③口 |----|
48
口口口口 |①---|
口③③口 |②---|
①②口口 |③---|
口口口口 |----|
49
①口口① |①---|
②口口② |②---|
③口口③ |③---|
④口口④ |④---|
50
①②口口 |①---|
口③③口 |②---|
口口口口 |③---|
口口口口 |----|
51
口口口口 |①---|
口口口口 |②---|
口口②① |③---|
口③③口 |----|
52
口口口口 |①---|
口③③口 |②---|
①②口口 |③---|
口口口口 |----|
53
①口口① |①---|
②口口② |②---|
③口口③ |③---|
④口口④ |④---|
54
④口口口 |①---|
口③口口 |②---|
②口口口 |③---|
口①口口 |④---|
55
口口口① |①---|
口口口② |②---|
口口口③ |③---|
口口口④ |④---|
56
口④口口 |①---|
③口口口 |②---|
口②口口 |③---|
①口口口 |④---|
57
口口④口 |①---|
口口③口 |②---|
口口②口 |③---|
口口①口 |④---|
58
④口口口 |①---|
口③口口 |②---|
②口口口 |③---|
口①口口 |④---|
59
口口④口 |①---|
口口口③ |②---|
口口②口 |③---|
口口口① |④---|
60
①口口① |①---|
口口口口 |----|
口口口口 |----|
口口口口 |----|
61
口口口口 |----|
①口口① |----|
②口口② |①--②|
③口口③ |--③-|
62
口口口口 |----|
口口口口 |----|
口口口口 |----|
口口口口 |----|
63
①②口口 |①---|
口③③口 |②---|
④口口口 |③---|
口口口口 |④---|
64
口口口口 |①---|
口口口口 |②---|
口口②①
口口口口

口口口口
口口口口
口口口④ |③---|
口③③口 |④---|
65
口口口口 |①---|
口③③口 |②---|
①②口④ |③---|
口口口口 |④---|
66
①口口① |①---|
②口口② |②---|
③口口③ |③---|
④口口④ |④---|
67
①②口口 |①---|
口③③口 |②---|
④口口口 |③---|
口口口口 |④---|
68
口口口口 |①---|
口口口口 |②---|
口口②①
口口口口

口口口口
口口口口
口口口④ |③---|
口③③口 |④---|
69
口口口口 |①---|
口③③口 |②---|
①②口④ |③---|
口口口口 |④---|
70
①口口① |①---|
②口口② |②---|
③口口③ |③---|
④口口④ |④---|
71
⑤口口④ |①--②|
口③口⑥ |--③-|
口①②口 |--④-|
口口口口 |⑤-⑥-|
72
口口口口 |①--②|
口③②口 |--③-|
①口⑥口 |--④-|
⑤口口④ |⑤-⑥-|
73
①①口口 |①---|
口口口口 |----|
口口口口 |----|
口口口口 |----|


不確定度: 0

最終更新:2013年06月30日 20:10