RED ZONE
Tatsh&NAOKI

ADVANCED

Level: 8
BPM: 165
Notes: 612

1
口口口口 |----|
口口口口 |----|
口口口口 |----|
口口口口 |----|
2
口口口口 |----|
口口口口 |----|
口口口口 |----|
口口口口 |----|
3
口口口口 |----|
口口口口 |----|
口口口口 |----|
口口口口 |----|
4
口口口口 |----|
口口口口 |----|
口口口口 |----|
口口口口 |----|
5
口⑨⑧口 |①②③④|
口⑦⑥口 |⑤-⑥⑦|
⑤⑫⑪⑩ |-⑧⑨-|
①②③④ |⑩⑪⑫-|
6
④口口⑧ |①-②-|
口③⑦口 |③-④-|
②口口⑥ |⑤-⑥-|
口①⑤口 |⑦-⑧-|
7
口①⑤口 |①-②-|
口⑥口② |③-④-|
③口⑦口 |⑤-⑥-|
口口口④ |⑦---|
8
口④⑧口 |①-②-|
③口口⑦ |③-④-|
口②⑥口 |⑤-⑥-|
①口口⑤ |⑦-⑧-|
9
①口口① |①-②-|
口②②⑤ |③-④-|
③口⑥③ |⑤-⑥-|
口④④⑦ |⑦---|
10
口④⑧口 |①-②-|
③口口⑦ |③-④-|
口②⑥口 |⑤-⑥-|
①口口⑤ |⑦-⑧-|
11
①⑤口口 |①-②-|
口口②口 |③-④-|
口③⑧⑥ |⑤-⑥-|
⑦口④口 |⑦-⑧-|
12
④口口⑧ |①-②-|
口③⑦口 |③-④-|
②口口⑥ |⑤-⑥-|
口①⑤口 |⑦-⑧-|
13
口②①口 |-①--|
③⑥⑥③ |②--③|
⑤①②④ |--④-|
④口口⑤ |⑤-⑥-|
14
①口⑧④ |①-②-|
③口⑧④ |③-④-|
口⑤②⑥ |⑤-⑥-|
⑦口②⑥ |⑦-⑧-|
15
①口⑧② |①-②-|
口③⑧② |③-④-|
⑦口④⑥ |⑤-⑥-|
⑤口④⑥ |⑦-⑧-|
16
①⑥⑥口 |①--②|
③①口② |--③-|
⑤③②④ |-④--|
口⑤④口 |⑤-⑥-|
17
⑤口口① |①-②-|
口⑥②口 |③-④-|
口⑦③口 |⑤-⑥-|
⑧口口④ |⑦-⑧-|
18
③口⑧② |①-②-|
①口④⑥ |③-④-|
口⑤⑧② |⑤-⑥-|
⑦口④⑥ |⑦-⑧-|
19
口③⑧② |①-②-|
①口④⑥ |③-④-|
⑤口⑧② |⑤-⑥-|
⑦口④⑥ |⑦-⑧-|
20
①口口① |①--②|
口②②口 |--③-|
③口口③
口口口口

⑤口口⑥
⑤口口⑥
口口口口 |--④-|
口④④口 |⑤-⑥-|
21
口①①口 |①---|
口口口口 |----|
口①①口 |----|
口口口口 |----|
22
①②口口 |①-②-|
口⑤⑥口 |③-④-|
口⑦⑧口 |⑤-⑥-|
口口④③ |⑦-⑧-|
23
口口④③ |①-②-|
⑤口口⑥ |③-④-|
⑦口口⑧ |⑤-⑥-|
①②口口 |⑦-⑧-|
24
①②口口 |①-②-|
口⑤⑥口 |③-④-|
口⑦⑧口 |⑤-⑥-|
口口④③ |⑦-⑧-|
25
①③③① |①-②-|
⑤⑦⑧⑥ |③-④-|
⑤⑦⑧⑥ |⑤-⑥-|
②④④② |⑦-⑧-|
26
①②口口 |①-②-|
口⑤⑥口 |③-④-|
口⑦⑧口 |⑤-⑥-|
口口④③ |⑦-⑧-|
27
口口④③ |①-②-|
⑤口口⑥ |③-④-|
⑦口口⑧ |⑤-⑥-|
①②口口 |⑦-⑧-|
28
①②口口 |①-②-|
口⑤⑥口 |③-④-|
口⑦⑧口 |⑤-⑥-|
口口④③ |⑦-⑧-|
29
①③③① |①-②-|
⑤⑦⑧⑥ |③-④-|
⑤⑦⑧⑥ |⑤-⑥-|
②④④② |⑦-⑧-|
30
②⑧口③ |①-②-|
⑥口口口 |③-④⑤|
口口⑦口 |-⑥--|
口④⑤① |⑦-⑧-|
31
口口口④ |①-②-|
⑤口③⑥ |③-④-|
⑦②口⑧ |⑤-⑥-|
①口口口 |⑦-⑧-|
32
②⑧口③ |①-②-|
⑥口口口 |③-④⑤|
口口⑦口 |-⑥--|
口④⑤① |⑦-⑧-|
33
口口①① |①---|
④②②④ |②---|
③③口口 |③---|
口口口口 |④---|
34
②⑧口③ |①-②-|
⑥口口口 |③-④⑤|
口口⑦口 |-⑥--|
口④⑤① |⑦-⑧-|
35
③⑦⑦③ |①②-③|
⑥①②⑤ |--④-|
⑤口口⑥ |-⑤--|
④口口④ |⑥--⑦|
36
口口口口 |----|
口口口口 |----|
口口口口 |----|
口口口口 |----|
37
②口口① |----|
③②①③ |----|
③①②③ |①--②|
①口口② |--③-|
38
口口②口 |①---|
口⑤④口 |②---|
口③⑥口 |③-④-|
口①口口 |⑤-⑥-|
39
①口口④ |--①-|
⑤口口口 |②-③-|
口③口⑥ |④-⑤-|
⑦口②口 |⑥-⑦-|
40
④口口口 |①---|
⑥②②口 |②---|
口口③⑤ |③-④-|
口①口口 |⑤-⑥-|
41
口②口口 |①-②-|
口口③① |③-④-|
口④口⑦ |⑤-⑥-|
⑥口⑤口 |⑦---|
42
①口口④ |①---|
口⑤②口 |②---|
③口口⑥ |③-④-|
口口口口 |⑤-⑥-|
43
⑤⑦口⑥ |--①-|
口口④口 |②-③-|
口③②口 |④-⑤-|
①口口口 |⑥-⑦-|
44
口口口口 |①---|
口口口口 |②---|
口口口①
口②口口

口口口口
⑤口口④
口③口⑥ |③-④-|
口口口口 |⑤-⑥-|
45
①③④② |①②③④|
⑬⑨⑩⑭ |⑤⑥⑦⑧|
⑮⑪⑫⑯ |⑨⑩⑪⑫|
⑦⑤⑥⑧ |⑬⑭⑮⑯|
46
①②口口 |①-②-|
口⑤⑥口 |③-④-|
口⑦⑧口 |⑤-⑥-|
口口④③ |⑦-⑧-|
47
口口④③ |①-②-|
⑤口口⑥ |③-④-|
⑦口口⑧ |⑤-⑥-|
①②口口 |⑦-⑧-|
48
①②口口 |①-②-|
口⑤⑥口 |③-④-|
口⑦⑧口 |⑤-⑥-|
口口④③ |⑦-⑧-|
49
①③③① |①-②-|
⑤⑦⑧⑥ |③-④-|
⑤⑦⑧⑥ |⑤-⑥-|
②④④② |⑦-⑧-|
50
①②口口 |①-②-|
口⑤⑥口 |③-④-|
口⑦⑧口 |⑤-⑥-|
口口④③ |⑦-⑧-|
51
口口④③ |①-②-|
⑤口口⑥ |③-④-|
⑦口口⑧ |⑤-⑥-|
①②口口 |⑦-⑧-|
52
①②口口 |①-②-|
口⑤⑥口 |③-④-|
口⑦⑧口 |⑤-⑥-|
口口④③ |⑦-⑧-|
53
①③③① |①-②-|
⑤⑦⑧⑥ |③-④-|
⑤⑦⑧⑥ |⑤-⑥-|
②④④② |⑦-⑧-|
54
②⑧口③ |①-②-|
⑥口口口 |③-④⑤|
口口⑦口 |-⑥--|
口④⑤① |⑦-⑧-|
55
口口口④ |①-②-|
⑤口③⑥ |③-④-|
⑦②口⑧ |⑤-⑥-|
①口口口 |⑦-⑧-|
56
②⑧口③ |①-②-|
⑥口口口 |③-④⑤|
口口⑦口 |-⑥--|
口④⑤① |⑦-⑧-|
57
口口①① |①---|
④②②④ |②---|
③③口口 |③---|
口口口口 |④---|
58
②⑧口③ |①-②-|
⑥口口口 |③-④⑤|
口口⑦口 |-⑥--|
口④⑤① |⑦-⑧-|
59
③⑦⑦③ |①②-③|
⑥①②⑤ |--④-|
⑤口口⑥ |-⑤--|
④口口④ |⑥--⑦|
60
口口口口 |----|
口口口口 |----|
口口口口 |----|
口口口口 |----|
61
②口口① |----|
③②①③ |----|
③①②③ |①--②|
①口口② |--③-|
62
口口口口 |----|
口口口口 |----|
口口口口 |----|
口口口口 |----|
63
⑦⑧口口 |①-②-|
⑤⑥口口 |③-④-|
③④口口 |⑤-⑥-|
①②口口 |⑦-⑧-|
64
口⑦⑧口 |①-②-|
口⑤⑥口 |③-④-|
口③④口 |⑤-⑥-|
口①②口 |⑦-⑧-|
65
口口⑦⑧ |①-②-|
口口⑤⑥ |③-④-|
口口③④ |⑤-⑥-|
口口①② |⑦-⑧-|
66
口⑦⑧口 |①-②-|
口⑤⑥口 |③-④-|
口③④口 |⑤-⑥-|
口①②口 |⑦-⑧-|
67
③⑦⑧④ |①-②-|
口口口口 |③-④-|
口口口口 |⑤-⑥-|
①⑤⑥② |⑦-⑧-|
68
口口口口 |①-②-|
口③④口 |③-④-|
口①②口
口口口口

⑤口口⑥
⑤口口⑥
口⑦⑧口 |⑤-⑥-|
口⑦⑧口 |⑦-⑧-|
69
⑦口口⑧ |①-②-|
⑤口口⑥ |③-④-|
③口口④ |⑤-⑥-|
①口口② |⑦-⑧-|
70
口①⑤口 |①-②-|
口⑥②口 |③-④-|
口③⑦口 |⑤-⑥-|
口⑧④口 |⑦-⑧-|
71
①④口① |①--②|
②⑥⑤③ |--③-|
口④口口 |--④-|
②⑥⑤③ |⑤-⑥-|
72
①口②① |①--②|
③⑤⑥④ |--③-|
口口②口 |--④-|
③⑤⑥④ |⑤-⑥-|
73
①口口① |①---|
口口口口 |----|
口①①口 |----|
口口口口 |----|


不確定度: 0

最終更新:2013年06月30日 20:09